Подписывайся на наш канал в Telegram https://t.me/torrentok и получи доступ к торрентам без ограничений!

Проект «Анна Николаевна» (2020) WEBRip [H.264] (сезон 1, серии 1-2 из 8) [MP4|1280x534] (обновляемая) торрент скачать бесплатно

Проект «Анна Николаевна» (2020) WEBRip [H.264] (сезон 1, серии 1-2 из 8) [MP4|1280x534] (обновляемая)Производство: Россия
Жанр: Комедия, фантастика, драма
Режиссер: Максим Пежемский
Актеры: Зоя Бербер, Антон Филипенко, Сергей Гармаш, Кузьма Сапрыкин, Федор Лавров, Маруся Климова, Антон Васильев, Никита Тарасов, Анна Котова-Дерябина, Ирина Розанова

Описание

Отечественные учёные создали андроида-полицейского. Идеальная во всех отношениях капитан Анна Николаевна Королькевич отправляется служить в провинциальный город, чтобы увидеть реальную жизнь и стать похожей на человека. Коллеги думают, что Анна Николаевна — дочь замминистра, и ничто не предвещает беды, пока очеловечивание не заходит слишком далеко.

Возраст: 18+ (зрителям, достигшим 18 лет. запрещено для детей)
Продолжительность: 00: 51: 00
Качество видео: WEBRip
Перевод: Отсутствует
Язык озвучки: Русский
Субтитры: Отсутствуют
Видео: AVC/H.264, 1280x534, ~1 430 kbps
Аудио 1: AAC, 2 ch, 102 kbps - русский (без цензуры)
Аудио 2: AAC, 2 ch, 103 kbps - русский
General
Complete name : D: VideoSerialsПроект Анна Николаевна (1 сезон)e01s01.mp4
Format : MPEG-4
Format profile : Base Media
Codec ID : isom (isom/iso2/avc1/mp41)
File size : 597 MiB
Duration : 50 min 46 s
Overall bit rate : 1 644 kb/s
Writing application : Lavf58.12.100
Video
ID : 1
Format : AVC
Format/Info : Advanced Video Codec
Format profile : [email protected]
Format settings : CABAC/2 Ref Frames
Format settings, CABAC : Yes
Format settings, Reference frames : 2 frames
Codec ID : avc1
Codec ID/Info : Advanced Video Coding
Duration : 50 min 46 s
Bit rate : 1 430 kb/s
Width : 1 280 pixels
Height : 534 pixels
Display aspect ratio : 2.40: 1
Original display aspect ratio : 2.40: 1
Frame rate mode : Constant
Frame rate : 23.976 (23976/1000) FPS
Color space : YUV
Chroma subsampling : 4: 2: 0
Bit depth : 8 bits
Scan type : Progressive
Bits/(Pixel*Frame) : 0.087
Stream size : 519 MiB (87%)
Codec configuration box : avcC
Audio #1
ID : 2
Format : AAC LC
Format/Info : Advanced Audio Codec Low Complexity
Codec ID : mp4a-40-2
Duration : 50 min 46 s
Duration_LastFrame : -1 ms
Bit rate mode : Constant
Bit rate : 102 kb/s
Channel(s) : 2 channels
Channel layout : L R
Sampling rate : 48.0 kHz
Frame rate : 46.875 FPS (1024 SPF)
Compression mode : Lossy
Stream size : 36.9 MiB (6%)
Language : Russian
Default : Yes
Alternate group : 1
Audio #2
ID : 3
Format : AAC LC
Format/Info : Advanced Audio Codec Low Complexity
Codec ID : mp4a-40-2
Duration : 50 min 46 s
Duration_LastFrame : -1 ms
Bit rate mode : Constant
Bit rate : 103 kb/s
Channel(s) : 2 channels
Channel layout : L R
Sampling rate : 48.0 kHz
Frame rate : 46.875 FPS (1024 SPF)
Compression mode : Lossy
Stream size : 37.4 MiB (6%)
Language : Russian
Default : No
Alternate group : 1
Скриншоты:


Все одноименные релизы в Клубе
Время раздачи: 24/7 (до появления первых 3-5 скачавших)

Другие торренты по теме:

  • Проект «Анна Николаевна» (2020) WEBRip (сезон 1, серии 1 из 8) (обновляемая)
  • Проект «Анна Николаевна» (2020) WEBRip [H.264 / 1080p-LQ] (сезон 1, серии 1-2 из 8) (обновляемая)
  • Проект «Анна Николаевна» (2020) WEBRip [H.264 / 720p-LQ] (сезон 1, серия 1-3 из 8) (обновляемая)
  • Проект «Анна Николаевна» (2020) WEBRip [H.264] (сезон 1, серия 1-8 из 8)

  • Посетители, находящиеся в группе Гости, не могут оставлять комментарии в данной новости.