Подписывайся на наш канал в Telegram https://t.me/torrentok и получи доступ к торрентам без ограничений!

Рикошет (2019) WEB-DLRip [H.264] (сезон 1, серии 1-4 из 16) [MP4|1280x544] (обновляемая) торрент скачать бесплатно

Рикошет (2019) WEB-DLRip [H.264] (сезон 1, серии 1-4 из 16) [MP4|1280x544] (обновляемая)Производство: Россия/КИТ, SMART Production
Жанр: триллер, детектив, криминал, боевик
Режиссер: Денис Карышев, Вячеслав Кириллов
Актеры: Александр Устюгов, Екатерина Волкова, Сергей Шнырев, Петр Рыков, Ингрид Олеринская, Виктория Заболотная, Григорий Зельцер, Елена Муравьева, Константин Адаев, Данила Якушев и др.

Описание

20 лет назад его официально похоронили. Воскреснуть Дениса заставляет смерть родителей. Чтобы достойно их похоронить, последний герой лихих 90-х возвращается в родной Аннинск с новым именем, с новым лицом, с новыми документами. Он сразу оказывается в центре криминальных событий городка, погрязшего в преступности. Денис понимает, что ошибок прошлого уже не исправить, но в его силах попытаться изменить кое-что в настоящем.

Возраст: 16+ (зрителям, достигшим 16 лет)
Дата российской премьеры: 06 апреля 2020 НТВ
Продолжительность: ~00: 50: 00 серия
Качество видео: WEB-DLRip
Видео: AVC/H.264, 1280x544, ~3500 Kbps
Аудио: AAC, 2 ch, 160 Kbps
Полное имя : E: Rikoshet_2019_WEB-DLRip720p_x264_NNM-ClubRikoshet.E01.2019.WEB-DLRip.720p.x264.ExKinoRay.mp4
Формат : MPEG-4
Профиль формата : Base Media
Идентификатор кодека : isom (isom/iso2/avc1/mp41)
Размер файла : 1, 28 Гбайт
Продолжительность : 49 м.
Общий поток : 3665 Кбит/сек
Программа кодирования : XviD4PSP 7.0.129
Видео
Идентификатор : 1
Формат : AVC
Формат/Информация : Advanced Video Codec
Профиль формата : [email protected]
Параметр CABAC формата : Да
Параметр ReFrames формата : 9 кадров
Идентификатор кодека : avc1
Идентификатор кодека/Информация : Advanced Video Coding
Продолжительность : 49 м.
Битрейт : 3500 Кбит/сек
Ширина : 1280 пикселей
Высота : 544 пикселя
Соотношение сторон : 2, 35: 1
Режим частоты кадров : Постоянный
Частота кадров : 25, 000 кадров/сек
Цветовое пространство : YUV
Субдискретизация насыщенности : 4: 2: 0
Битовая глубина : 8 бит
Тип развёртки : Прогрессивная
Бит/(Пиксели*Кадры) : 0.201
Размер потока : 1, 22 Гбайт (95%)
Библиотека кодирования : x264 core 146 r2538 121396c
Настройки программы : cabac=1/ref=9/deblock=1: -3: -3/analyse=0x3: 0x113/me=umh/subme=11/psy=1/psy_rd=1.00: 0.20/mixed_ref=1/me_range=32/chroma_me=1/trellis=2/8x8dct=1/cqm=0/deadzone=21, 11/fast_pskip=1/chroma_qp_offset=-3/threads=24/lookahead_threads=8/sliced_threads=0/nr=0/decimate=0/interlaced=0/bluray_compat=0/constrained_intra=0/bframes=10/b_pyramid=2/b_adapt=2/b_bias=0/direct=3/weightb=1/open_gop=0/weightp=2/keyint=250/keyint_min=25/scenecut=40/intra_refresh=0/rc_lookahead=60/rc=2pass/mbtree=1/bitrate=3500/ratetol=1.0/qcomp=0.60/qpmin=0/qpmax=69/qpstep=4/cplxblur=20.0/qblur=0.5/vbv_maxrate=14000/vbv_bufsize=14000/nal_hrd=none/filler=0/ip_ratio=1.40/aq=3: 1.40
Цветовой диапазон : Limited
Основные цвета : BT.709
Характеристики трансфера : BT.709
Коэффициенты матрицы : BT.709
Аудио
Идентификатор : 2
Формат : AAC
Формат/Информация : Advanced Audio Codec
Профиль формата : LC
Идентификатор кодека : 40
Продолжительность : 49 м.
Вид битрейта : Постоянный
Битрейт : 160 Кбит/сек
Каналы : 2 канала
Расположение каналов : Front: L R
Частота : 48, 0 КГц
Метод сжатия : С потерями
Размер потока : 57, 0 Мбайт (4%)
Язык : Russian
Default : Да
Alternate group : 1

Другие торренты по теме:

  • Рикошет (2019) WEB-DLRip (сезон 1, серии 1-4 из 16) (обновляемая)
  • Рикошет (2019) WEB-DLRip [H.264 / 720p-LQ] (сезон 1, серии 1-16 из 16)

  • Посетители, находящиеся в группе Гости, не могут оставлять комментарии в данной новости.