Подписывайся на наш канал в Telegram https://t.me/torrentok и получи доступ к торрентам без ограничений!

Ответный удар: Революция / Strike back: Revolution (2019) WEBRip [H.264] (сезон 7, серии 1-10 из 10) BaibaKo [MP4|720x400] [AD] торрент скачать бесплатно

Ответный удар: Революция / Strike back: Revolution (2019) WEBRip [H.264] (сезон 7, серии 1-10 из 10) BaibaKo [MP4|720x400] [AD]Производство: Великобритания
Жанр: боевик, триллер, драма
Режиссер: Майкл Дж. Бассет, Джулиан Холмс
Актеры: Филип Уинчестер, Салливан Степлтон, Рона Митра, Мишель Лукес, Робсон Грин, Дугрей Скотт, Мартин Клунз и др.

Описание

Джон Портер накануне вторжения в Ирак в 2003 году руководит специальным подразделением в операции по спасению заложника в центре Басры. Однако результатом операции становится катастрофический поворот событий для него и Коллинсона. У Портера, страдающего чувством вины, спустя 7 лет появляется возможность вернуться в Ирак и попытаться все исправить. Спустя годы Портер и Коллинсон столкнутся снова.

Возраст: 16+ (зрителям, достигшим 16 лет)
Продолжительность: ~00: 50: 00 серия
Качество видео: WEBRip
Перевод: Многоголосый закадровый, профессиональный -BaibaKo
Реклама: присутствуют аудио и видео вставки рекламы
Видео: AVC/H.264, 720x400, ~1500 Kbps
Аудио: AAC, 2 ch, 288 Kbps — русский
Полное имя : M: Strike_Back_s7_WEBRip_x264_BaibaKo_NNM-CLUBStrike.Back.s07e01.WEBRip.x264.Rus.BaibaKo.tv.mp4
Формат : MPEG-4
Профиль формата : Base Media
Идентификатор кодека : isom (isom)
Размер файла : 613 Мбайт
Продолжительность : 47 м.
Режим общего битрейта : Переменный
Общий поток : 1787 Кбит/сек
Дата кодирования : UTC 2020-04-11 12: 24: 42
Дата пометки : UTC 2020-04-11 12: 24: 42
Программа кодирования : Yamb 2.1.0.0 http://yamb.unite-video.com
Видео
Идентификатор : 1
Формат : AVC
Формат/Информация : Advanced Video Codec
Профиль формата : [email protected]
Параметр CABAC формата : Нет
Параметр ReFrames формата : 3 кадра
Идентификатор кодека : avc1
Идентификатор кодека/Информация : Advanced Video Coding
Продолжительность : 47 м.
Битрейт : 1499 Кбит/сек
Максимальный битрейт : 3475 Кбит/сек
Ширина : 720 пикселей
Высота : 400 пикселей
Соотношение сторон : 16: 9
Режим частоты кадров : Постоянный
Частота кадров : 23, 976 (24000/1001) кадра/сек
Цветовое пространство : YUV
Субдискретизация насыщенности : 4: 2: 0
Битовая глубина : 8 бит
Тип развёртки : Прогрессивная
Бит/(Пиксели*Кадры) : 0.217
Размер потока : 514 Мбайт (84%)
Дата кодирования : UTC 2019-02-17 17: 15: 45
Дата пометки : UTC 2020-04-11 12: 24: 45
Аудио
Идентификатор : 2
Формат : AAC
Формат/Информация : Advanced Audio Codec
Профиль формата : LC
Идентификатор кодека : 40
Продолжительность : 47 м.
Вид битрейта : Переменный
Битрейт : 288 Кбит/сек
Максимальный битрейт : 355 Кбит/сек
Каналы : 2 канала
Расположение каналов : Front: L R
Частота : 48, 0 КГц
Частота кадров : 46, 875 кадров/сек (1024 spf)
Метод сжатия : С потерями
Размер потока : 97, 4 Мбайт (16%)
Язык : Russian
Скриншоты:


Сериал Ответный удар/Strike back на NNM-CLUB
Время раздачи: 24/7 (до появления первых 3-5 скачавших)

Другие торренты по теме:

  • Звёздные войны. Эпизод 5: Империя наносит ответный удар / Star Wars: Episode V - The Empire Strikes Back / Despecialized Edition Theatrical reconstruction HD (1980) BDRip скачать через торрент бесплатно
  • Ответный удар: Наследие / Strike back: Legacy (2015) HDTVRip (сезон 5, серии 1 из 10) BaibaKo (обновляемая) скачать через торрент бесплатно
  • Ответный удар: Наследие / Strike back: Legacy (2015) HDTV [H.264 / 720p-LQ] (сезон 5, серия 1 из 10) (BaibaKo) (обновляемая) скачать через торрент бесплатно
  • Ответный удар: Наследие / Strike back: Legacy (2015) HDTVRip [H.264] (сезон 5, серия 1 из 10) BaibaKo [MP4|720x400] скачать через торрент бесплатно
  • Специальный репортаж. Хутор наносит ответный удар (2015.06.29) SATRip скачать через торрент бесплатно
  • Ответный удар / Strike Back (2010) HDTV [H.264 / 1080i-LQ] (Сезон 1, серия 1-10 из 10) (NovaMedia) скачать через торрент бесплатно
  • Розовая пантера наносит ответный удар / The Pink Panther Strikes Again (1976) DVDRip [H.264] скачать через торрент бесплатно
  • Звёздные войны: Эпизод 5 - Империя наносит ответный удар / Star Wars: Episode V - The Empire Strikes Back (1980) BDRip [H.265 / 720p] [Despecialized Edition] скачать через торрент бесплатно

  • Посетители, находящиеся в группе Гости, не могут оставлять комментарии в данной новости.