Подписывайся на наш канал в Telegram https://t.me/torrentok и получи доступ к торрентам без ограничений!

Главная дорога (выпуски 1-92 из ) (2018-2020) WEBRip 1080p (Обновляемая) торрент скачать бесплатно

Главная дорога (выпуски 1-92 из ) (2018-2020) WEBRip 1080p (Обновляемая)Телекомпания: НТВ
Жанр: Телепередача

Описание

Главная дорога — первая на российском телевидении информационная программа обо всем, что происходит на дорогах страны. Это полчаса полезной информации не только для автолюбителей, но и для пешеходов. В постоянной рубрике Испытано на себе зрителей ждут наглядные советы, как вести себя в сложных ситуациях на дорогах. Сложнейший курс контраварийной подготовки, адаптированный для массового зрителя, научит водителей уверенно держаться за рулем. Занятия проводит инструктор известного во всем мире Центра высшего водительского мастерства. И в каждом выпуске проекта — моделирование аварийных ситуаций: разбор и рекомендации по предотвращению происшествий, а также советы юристов. В рубрике $еконд-тест ведущие программы вместе с автоэкспертами выбирают подержанные автомобили, испытывают их на полигоне и проверяют в сервисе. А в Федеральной трассе рассказывается о дорогах нашей страны, их особенностях и достопримечательностях. Показать всю важность соблюдения ПДД и сделать российские дороги безопаснее — цель программы и ее ведущих — актеров Дениса Юченкова и Андрея Федорцова.
Релиз от: PythonKAA, без рекламы
Продолжительность: ~ 00: 26: 00
Качество видео: WEBRip 1080p
Видео: MPEG-4 AVC, ~ 3200 Кбит/с, 1920x1080
Аудио: ААС, 2 ch, 126 Кбит/с2018
01. 13.01.2018 Главная дорога
02. 27.01.2018 Главная дорога
03. 03.02.2018 Главная дорога
04. 10.02.2018 Главная дорога
05. 17.02.2018 Главная дорога
06. 24.02.2018 Главная дорога
07. 03.03.2018 Главная дорога
08. 10.03.2018 Главная дорога
09. 17.03.2018 Главная дорога
10. 24.03.2018 Главная дорога
11. 31.03.2018 Главная дорога
12. 07.04.2018 Главная дорога
13. 14.04.2018 Главная дорога
14. 21.04.2018 Главная дорога
15. 30.04.2018 Главная дорога
16. 19.05.2018 Главная дорога
17. 26.05.2018 Главная дорога
18. 02.06.2018 Главная дорога
19. 10.06.2018 Главная дорога
20. 16.06.2018 Главная дорога
21. 23.06.2018 Главная дорога
22. 30.06.2018 Главная дорога
23. 25.08.2018 Главная дорога
24. 01.09.2018 Главная дорога
25. 08.09.2018 Главная дорога
26. 15.09.2018 Главная дорога
27. 22.09.2018 Главная дорога
28. 29.09.2018 Главная дорога
29. 06.10.2018 Главная дорога
30. 13.10.2018 Главная дорога
31. 20.10.2018 Главная дорога
32. 27.10.2018 Главная дорога
33. 03.11.2018 Главная дорога
34. 10.11.2018 Главная дорога
35. 17.11.2018 Главная дорога
36. 24.11.2018 Главная дорога
37. 01.12.2018 Главная дорога
38. 08.12.2018 Главная дорога
39. 15.12.2018 Главная дорога
40. 22.12.2018 Главная дорога
41. 30.12.2018 Главная дорога
2019
01 (42). 02.02.2019 Главная дорога
02 (43). 09.02.2019 Главная дорога
03 (44). 16.02.2019 Главная дорога
04 (45). 23.02.2019 Главная дорога
05 (46). 02.03.2019 Главная дорога
06 (47). 09.03.2019 Главная дорога
07 (48). 16.03.2019 Главная дорога
08 (49). 23.03.2019 Главная дорога
09 (50). 30.03.2019 Главная дорога
10 (51). 06.04.2019 Главная дорога
11 (52). 13.04.2019 Главная дорога
12 (53). 27.04.2019 Главная дорога
13 (54). 04.05.2019 Главная дорога
14 (55). 18.05.2019 Главная дорога
15 (56). 25.05.2019 Главная дорога
16 (57). 01.06.2019 Главная дорога
17 (58). 08.06.2019 Главная дорога
18 (59). 15.06.2019 Главная дорога
19 (60). 22.06.2019 Главная дорога
20 (61). 29.06.2019 Главная дорога
21 (62). 31.08.2019 Главная дорога
22 (63). 07.09.2019 Главная дорога
23 (64). 14.09.2019 Главная дорога
24 (65). 21.09.2019 Главная дорога
25 (66). 28.09.2019 Главная дорога
26 (67). 05.10.2019 Главная дорога
27 (68). 12.10.2019 Главная дорога
28 (69). 19.10.2019 Главная дорога
29 (70). 26.10.2019 Главная дорога
30 (71). 02.11.2019 Главная дорога
31 (72). 09.11.2019 Главная дорога
32 (73). 16.11.2019 Главная дорога
33 (74). 23.11.2019 Главная дорога
34 (75). 30.11.2019 Главная дорога
35 (76). 07.12.2019 Главная дорога
36 (77). 14.12.2019 Главная дорога
37 (78). 21.12.2019 Главная дорога
38 (79). 28.12.2019 Главная дорога
2020
01 (80). 01.02.2020 Главная дорога
02 (81). 08.02.2020 Главная дорога
03 (82). 15.02.2020 Главная дорога
04 (83). 22.02.2020 Главная дорога
05 (84). 29.02.2020 Главная дорога
06 (85). 07.03.2020 Главная дорога
07 (86). 14.03.2020 Главная дорога
08 (87). 21.03.2020 Главная дорога
09 (88). 28.03.2020 Главная дорога
10 (89). 04.04.2020 Главная дорога
11 (90). 11.04.2020 Главная дорога
12 (91). 18.04.2020 Главная дорога
13 (92). 25.04.2020 Главная дорога
General
Complete name : E: Главная дорога 2018-2020202013. 25.04.2020 Травмоопасный велосезон, трюки автомошенников на удаленке и штрафы для.mp4
Format : MPEG-4
Format profile : Base Media
Codec ID : isom (isom/iso2/avc1/mp41)
File size : 773 MiB
Duration : 26 min 3 s
Overall bit rate : 4 148 kb/s
Writing application : Lavf58.20.100
Video
ID : 1
Format : AVC
Format/Info : Advanced Video Codec
Format profile : [email protected]
Format settings : CABAC/3 Ref Frames
Format settings, CABAC : Yes
Format settings, ReFrames : 3 frames
Codec ID : avc1
Codec ID/Info : Advanced Video Coding
Duration : 26 min 2 s
Duration_FirstFrame : -40 ms
Bit rate : 4 015 kb/s
Width : 1 920 pixels
Height : 1 080 pixels
Display aspect ratio : 16: 9
Frame rate mode : Variable
Frame rate : 25.000 FPS
Minimum frame rate : 25.000 FPS
Maximum frame rate : 25.014 FPS
Color space : YUV
Chroma subsampling : 4: 2: 0
Bit depth : 8 bits
Scan type : Progressive
Bits/(Pixel*Frame) : 0.077
Stream size : 748 MiB (97%)
Color range : Limited
Color primaries : BT.709
Transfer characteristics : BT.709
Matrix coefficients : BT.709
Codec configuration box : avcC
Audio
ID : 2
Format : AAC LC
Format/Info : Advanced Audio Codec Low Complexity
Codec ID : mp4a-40-2
Duration : 26 min 3 s
Bit rate mode : Constant
Bit rate : 128 kb/s
Channel(s) : 2 channels
Channel layout : L R
Sampling rate : 44.1 kHz
Frame rate : 43.066 FPS (1024 SPF)
Compression mode : Lossy
Stream size : 23.8 MiB (3%)
Default : Yes
Alternate group : 1
Скриншоты:


Все одноименные релизы в Клубе
Время раздачи: 24/7 (круглосуточно, мультитрекерная)

Другие торренты по теме:

  • Главная дорога (27.09.2014) DVB
  • Главная дорога (27.09.2014) SATRip
  • Главная дорога (04.10.2014) DVB скачать через торрент бесплатно
  • Главная дорога (11.10.2014) DVB скачать через торрент бесплатно
  • Главная дорога (11.10.2014) SATRip скачать через торрент бесплатно
  • Главная дорога (18.10.2014) DVB
  • Главная дорога (18.10.2014) SATRip
  • Главная дорога (25.10.2014) SATRip скачать через торрент бесплатно

  • Посетители, находящиеся в группе Гости, не могут оставлять комментарии в данной новости.