Подписывайся на наш канал в Telegram https://t.me/torrentok и получи доступ к торрентам без ограничений!

Женский батальонъ / Батальонъ (2015) WEB-DLRip [H.264] (сезон 1, серии 1-4 из 4) [MP4|1920x1036] торрент скачать бесплатно

Женский батальонъ / Батальонъ (2015) WEB-DLRip [H.264] (сезон 1, серии 1-4 из 4) [MP4|1920x1036]Производство: Россия/Корнер Ворк, Art Pictures Studio
Жанр: военный, история, драма
Режиссер: Дмитрий Месхиев
Актеры: Мария Аронова, Мария Кожевникова, Марат Башаров, Евгений Дятлов, Ирина Рахманова, Валерия Шкирандо, Янина Малинчик, Мила Макарова, Полина Дудкина, Алёна Кучкова и др.

Описание

Весна 1917-го года. Февральская революция изменила жизнь России и ход Великой войны. Государь уже отрёкся от престола. В окопах, где противостояние с немцами длится уже не один год, вовсю ведут свою пропаганду большевики. Они призывают к миру с неприятелем. Российское офицерство фактически ничего не может решить без одобрения так называемых солдатских комитетов. Армия находится на пороге окончательного разложения. По приказу Временного правительства для поднятия боевого духа создаётся женский Батальон смерти под командованием георгиевского кавалера Марии Бочкарёвой. Своей службой Батальон смерти подаёт пример храбрости, мужества и спокойствия, поднимает дух солдат и доказывает, что каждая из этих женщин-героев достойна звания воина русской армии.

Возраст: 12+ (зрителям, достигшим 12 лет)
Релиз от: andpov
Продолжительность: ~00: 53: 00 серия
Качество видео: WEB-DLRip
Видео: AVC/H.264, 1920х1036 (1, 85: 1), ~5120 kbps
Аудио: AAC, 2 ch, 256 kbps
Общее
Полное имя : D: Женский батальонъ (2015)1 серия.mp4
Формат : MPEG-4
Профиль формата : Base Media
Идентификатор кодека : isom (isom/iso2/avc1/mp41)
Размер файла : 2, 00 Гбайт
Продолжительность : 53 м. 11 с.
Общий поток : 5 376 Кбит/сек
Программа кодирования : Lavf58.20.100
Видео
Идентификатор : 1
Формат : AVC
Формат/Информация : Advanced Video Codec
Профиль формата : [email protected]
Настройки формата : CABAC/4 Ref Frames
Параметр CABAC формата : Да
Параметр RefFrames формата : 4 кадра
Идентификатор кодека : avc1
Идентификатор кодека/Информация : Advanced Video Coding
Продолжительность : 53 м. 11 с.
Битрейт : 5 120 Кбит/сек
Ширина : 1 920 пикселей
Высота : 1 036 пикселей
Соотношение сторон : 1, 85: 1
Режим частоты кадров : Постоянный
Частота кадров : 25, 000 кадров/сек
Цветовое пространство : YUV
Субдискретизация насыщенности : 4: 2: 0
Битовая глубина : 8 бит
Тип развёртки : Прогрессивная
Бит/(Пиксели*Кадры) : 0.103
Размер потока : 1, 90 Гбайт (95%)
Библиотека кодирования : x264 core 148
Настройки программы : cabac=1/ref=3/deblock=1: 0: 0/analyse=0x3: 0x113/me=hex/subme=7/psy=1/psy_rd=1.00: 0.00/mixed_ref=1/me_range=16/chroma_me=1/trellis=1/8x8dct=1/cqm=0/deadzone=21, 11/fast_pskip=1/chroma_qp_offset=-2/threads=32/lookahead_threads=5/sliced_threads=0/nr=0/decimate=1/interlaced=0/bluray_compat=0/constrained_intra=0/bframes=6/b_pyramid=2/b_adapt=1/b_bias=0/direct=1/weightb=1/open_gop=0/weightp=2/keyint=50/keyint_min=26/scenecut=0/intra_refresh=0/rc_lookahead=40/rc=2pass/mbtree=1/bitrate=5120/ratetol=1.0/qcomp=0.60/qpmin=0/qpmax=69/qpstep=4/cplxblur=20.0/qblur=0.5/vbv_maxrate=7680/vbv_bufsize=20480/nal_hrd=none/filler=0/ip_ratio=1.40/aq=1: 1.00
Codec configuration box : avcC
Аудио
Идентификатор : 2
Формат : AAC LC
Формат/Информация : Advanced Audio Codec Low Complexity
Идентификатор кодека : mp4a-40-2
Продолжительность : 53 м. 11 с.
Вид битрейта : Постоянный
Битрейт : 256 Кбит/сек
Каналы : 2 канала
Channel layout : L R
Частота : 48, 0 КГц
Частота кадров : 46, 875 кадров/сек (1024 SPF)
Метод сжатия : С потерями
Размер потока : 97, 4 Мбайт (5%)
Язык : Russian
Default : Да
Alternate group : 1
Скриншоты:


Время раздачи: 24/7 (мультитрекерная раздача) (до появления первых 3-5 скачавших)

Другие торренты по теме:

  • BBC: Женский гений живописи / The Story of Women & Art (2014) HDTVRip [720p] (3 серии) скачать через торрент бесплатно
  • Новые русские сенсации. Женский приговор олигарху (2015.05.30) SATRip скачать через торрент бесплатно
  • Женский дом / GirlHouse (2014) WEB-DLRip скачать через торрент бесплатно
  • Вести.Doc с Ольгой Скабеевой. Женский фронт (10.11.2015) SATRip скачать через торрент бесплатно
  • Екатерина Мириманова | Интим. Женский взгляд. Как получать удовольствие от… (2015) [FB2] скачать через торрент бесплатно
  • А.И. Петрова (сост.) | Красота души. Женский православный календарь на 2016 год (2015) [PDF, DJVU]
  • Проекты - Проект ProShow Producer - 8 Марта женский день [PSH]
  • Кот Бегемот | Женский Фразеологический Словарь (2016) [FB2]

  • Посетители, находящиеся в группе Гости, не могут оставлять комментарии в данной новости.