Подписывайся на наш канал в Telegram https://t.me/torrentok и получи доступ к торрентам без ограничений!

Шазам! / Shazam! (2019) BDRip [MP4|1280x536] торрент скачать бесплатно

Шазам! / Shazam! (2019) BDRip [MP4|1280x536]Производство: США/Warner Bros., DC Entertainment, DC Comics
Жанр: фэнтези, боевик, комедия, приключения
Режиссер: Дэвид Ф. Сандберг/David F. Sandberg
Актеры: Закари Ливай, Эшер Энджел, Джек Дилан Грейзер, Марк Стронг, Грэйс Фултон, Адам Броди, Джимон Хонсу, Фэйти Херман, Миган Гуд, Мишель Борт, Йен Чен, Росс Батлер

Описание

В каждом из нас живет супергерой, нужна лишь толика магии, чтобы он проявил себя. Билли Бэтсон должен прокричать всего лишь одно слово — ШАЗАМ! — чтобы из сообразительного четырнадцатилетнего мальчишки превратиться во вполне себе взрослого супергероя Шазама, а все благодаря древнему волшебнику. В душе он остается ребенком, пусть и во взрослом могучем теле, поэтому поступает так, как поступил бы любой подросток, получивший сверхспособности, — оттягивается на полную катушку в этой подросшей версии себя самого! А умеет ли он летать? А есть ли у него рентгеновское зрение? Может ли он стрелять молниями из рук? А может ли пропустить контрольную по обществознанию? Шазам проверяет границы своих возможностей с бесшабашностью расшалившегося ребенка.
Но ему придется быстро обрести контроль над своими способностями, чтобы сразиться со смертоносными силами зла доктора Таддеуса Сиваны.

Возраст: 12+ (зрителям, достигшим 12 лет)
Рейтинг MPAA: PG-13 (детям до 13 лет просмотр нежелателен)
Дата мировой премьеры: 25 марта 2019
Дата российской премьеры: 4 апреля 2019, Каро-Премьер
Релиз от: Androdot
Продолжительность: 02: 11: 43
Качество видео: BDRip
Перевод: Дублированный
Субтитры: Oтсутствуют
Видео: AVC/H.264, 1280x536, ~2619 Kbps
Аудио: AAC, 2 ch, 192 Kbps
Общее
Полное имя : D: 2Shazam! (2019) BDRip MP4 DUB.mp4
Формат : MPEG-4
Профиль формата : Base Media
Идентификатор кодека : isom (isom)
Размер файла : 2, 59 Гбайт
Продолжительность : 2 ч. 11 м.
Режим общего битрейта : Переменный
Общий поток : 2 817 Кбит/сек
Название фильма : Шазам!/Shazam! (2019)
Исполнитель : Закари Ливай, Эшер Энджел, Джек Дилан Грейзер, Марк Стронг, Грэйс Фултон, Адам Броди, Джимон Хонсу, Фэйти Херман, Миган Гуд, Мишель Борт, Йен Чен, Росс Батлер
Жанр : Action Adventure
Тип содержимого : Short Film
Дата кодирования : UTC 2020-05-15 16: 34: 10
Дата пометки : UTC 2020-05-15 16: 53: 06
Программа кодирования : Megui
Обложка : Yes
Примечание : Androdot - NNM Mobile
ContentRating : mpaa|PG-13|300|
LongDescription : В каждом из нас живет супергерой, нужна лишь толика магии, чтобы он проявил себя. Билли Бэтсон должен прокричать всего лишь одно слово — ШАЗАМ! — чтобы из сообразительного четырнадцатилетнего мальчишки превратиться во вполне себе взрослого супергероя Шазама, а все благодаря древнему волшебнику. В душе он остается ребенком, пусть и во взрослом могучем теле, поэтому поступает так, как поступил бы любой подросток, получивший сверхспособности, — оттягивается на полную катушку в этой подросшей версии себя самого! А умеет ли он летать? А есть ли у него рентгеновское зрение? Может ли он стрелять молниями из рук? А может ли пропустить контрольную по обществознанию? Шазам проверяет границы своих возможностей с бесшабашностью расшалившегося ребенка./Но ему придется быстро обрести контроль над своими способностями, чтобы сразиться со смертоносными силами зла доктора Таддеуса Сиваны
Видео
Идентификатор : 1
Формат : AVC
Формат/Информация : Advanced Video Codec
Профиль формата : [email protected]
Настройки формата : CABAC/10 Ref Frames
Параметр CABAC формата : Да
Параметр RefFrames формата : 10 кадров
Идентификатор кодека : avc1
Идентификатор кодека/Информация : Advanced Video Coding
Продолжительность : 2 ч. 11 м.
Битрейт : 2 619 Кбит/сек
Максимальный битрейт : 13, 4 Мбит/сек
Ширина : 1 280 пикселей
Высота : 536 пикселей
Соотношение сторон : 2, 40: 1
Режим частоты кадров : Постоянный
Частота кадров : 23, 976 (24000/1001) кадра/сек
Цветовое пространство : YUV
Субдискретизация насыщенности : 4: 2: 0
Битовая глубина : 8 бит
Тип развёртки : Прогрессивная
Бит/(Пиксели*Кадры) : 0.159
Размер потока : 2, 41 Гбайт (93%)
Библиотека кодирования : x264 core 157 r2969 d4099dd
Настройки программы : cabac=1/ref=11/deblock=1: -1: -1/analyse=0x3: 0x133/me=umh/subme=10/psy=1/psy_rd=1.00: 0.15/mixed_ref=0/me_range=32/chroma_me=1/trellis=2/8x8dct=1/cqm=0/deadzone=21, 11/fast_pskip=0/chroma_qp_offset=-3/threads=4/lookahead_threads=1/sliced_threads=0/nr=0/decimate=1/interlaced=0/bluray_compat=0/constrained_intra=0/bframes=8/b_pyramid=1/b_adapt=2/b_bias=0/direct=3/weightb=1/open_gop=0/weightp=1/keyint=240/keyint_min=23/scenecut=40/intra_refresh=0/rc_lookahead=60/rc=2pass/mbtree=1/bitrate=2619/ratetol=1.0/qcomp=0.60/qpmin=0/qpmax=69/qpstep=4/cplxblur=20.0/qblur=0.5/ip_ratio=1.40/aq=1: 1.00
Язык : English
Дата кодирования : UTC 2020-05-12 15: 48: 37
Дата пометки : UTC 2020-05-15 16: 36: 17
Codec configuration box : avcC
Аудио
Идентификатор : 2
Формат : AAC LC
Формат/Информация : Advanced Audio Codec Low Complexity
Идентификатор кодека : mp4a-40-2
Продолжительность : 2 ч. 11 м.
Продолжительность оригинала : 2 ч. 11 м.
Вид битрейта : Переменный
Битрейт : 192 Кбит/сек
Максимальный битрейт : 195 Кбит/сек
Каналы : 2 канала
Channel layout : L R
Частота : 48, 0 КГц
Частота кадров : 46, 875 кадров/сек (1024 SPF)
Метод сжатия : С потерями
Размер потока : 181 Мбайт (7%)
Размер потока оригинала : 181 Мбайт (7%)
Default : Да
Alternate group : 1
Дата пометки : UTC 2020-05-15 16: 36: 17
Скриншоты:


Все одноименные релизы в Клубе
Время раздачи: с 13: 00 до 23: 00 (до появления первых 3-5 скачавших)

Другие торренты по теме:

  • Шазам! / Shazam! (2019) HDTVRip [H.264 / 1080p-LQ] [MVO] [AD]
  • Шазам! / Shazam! (2019) WEBRip [EN / RU Sub]
  • Шазам! / Shazam! (2019) WEBRip [MVO]
  • Шазам! / Shazam! (2019) WEBRip [H.264 / 1080p-LQ] [PR]
  • Шазам! / Shazam! (2019) BDRemux [H.264 / 1080p]
  • Шазам! / Shazam! (2019) BDRip [H.264]
  • Шазам! / Shazam! (2019) BDRip [H.264 / 720p]
  • Шазам! / Shazam! (2019) BDRip [H.264 / 1080p]

  • Посетители, находящиеся в группе Гости, не могут оставлять комментарии в данной новости.