Подписывайся на наш канал в Telegram https://t.me/torrentok и получи доступ к торрентам без ограничений!

Дело Ричарда Джуэлла / Richard Jewell (2019) BDRip [MP4|1280x536] торрент скачать бесплатно

Дело Ричарда Джуэлла / Richard Jewell (2019) BDRip [MP4|1280x536]Производство: США/Appian Way, Misher Films, 75 Year Plan Productions
Жанр: Драма, биография
Режиссер: Клинт Иствуд
Актеры: Пол Уолтер Хаузер, Сэм Рокуэлл, Кэти Бейтс, Джон Хэмм, Оливия Уайлд, Нина Арианда, Иэн Гомес, Уэйн Дювалл, Дилан Кассман, Майк Пневски

Описание

История Ричарда Джуэлла, который работал охранником на Олимпийских играх 1996 года в Атланте и, заметив рюкзак с бомбой, сумел вовремя эвакуировать людей. Однако всеобщая благодарность длилась недолго: через несколько дней Джуэлл сам превратился в главного подозреваемого и жертву уничижительной травли со стороны СМИ.

Возраст: 18+ (зрителям, достигшим 18 лет. запрещено для детей)
Рейтинг MPAA: R (лицам до 17 лет обязательно присутствие взрослого)
Дата мировой премьеры: 20 ноября 2019
Дата российской премьеры: 9 января 2020, Каро-Премьер
Релиз от: Androdot
Продолжительность: 02: 10: 55
Качество видео: BDRip
Перевод: Дублированный
Субтитры: Отсутствуют
Видео: AVC/H.264, 1280x536, ~3000 Kbps
Аудио: AAC, 2 ch, 192 Kbps
Общее
Полное имя : D: 2Richard Jewell (2019) BDRip MP4 DUB.mp4
Формат : MPEG-4
Профиль формата : Base Media
Идентификатор кодека : isom (isom)
Размер файла : 2, 92 Гбайт
Продолжительность : 2 ч. 10 м.
Режим общего битрейта : Переменный
Общий поток : 3 196 Кбит/сек
Название фильма : Дело Ричарда Джуэлла/Richard Jewell (2019)
Исполнитель : Пол Уолтер Хаузер, Сэм Рокуэлл, Кэти Бейтс, Джон Хэмм, Оливия Уайлд, Нина Арианда, Иэн Гомес, Уэйн Дювалл, Дилан Кассман, Майк Пневски
Жанр : Drama
Тип содержимого : Short Film
Дата кодирования : UTC 2020-05-15 14: 43: 22
Дата пометки : UTC 2020-05-15 14: 55: 09
Программа кодирования : Megui
Обложка : Yes
Примечание : Androdot - NNM Mobile
ContentRating : mpaa|R|400|
LongDescription : История Ричарда Джуэлла, который работал охранником на Олимпийских играх 1996 года в Атланте и, заметив рюкзак с бомбой, сумел вовремя эвакуировать людей. Однако всеобщая благодарность длилась недолго: через несколько дней Джуэлл сам превратился в главного подозреваемого и жертву уничижительной травли со стороны СМИ.
Видео
Идентификатор : 1
Формат : AVC
Формат/Информация : Advanced Video Codec
Профиль формата : [email protected]
Настройки формата : CABAC/10 Ref Frames
Параметр CABAC формата : Да
Параметр RefFrames формата : 10 кадров
Идентификатор кодека : avc1
Идентификатор кодека/Информация : Advanced Video Coding
Продолжительность : 2 ч. 10 м.
Битрейт : 3 000 Кбит/сек
Максимальный битрейт : 20, 1 Мбит/сек
Ширина : 1 280 пикселей
Высота : 536 пикселей
Соотношение сторон : 2, 40: 1
Режим частоты кадров : Постоянный
Частота кадров : 23, 976 (24000/1001) кадра/сек
Цветовое пространство : YUV
Субдискретизация насыщенности : 4: 2: 0
Битовая глубина : 8 бит
Тип развёртки : Прогрессивная
Бит/(Пиксели*Кадры) : 0.182
Размер потока : 2, 74 Гбайт (94%)
Библиотека кодирования : x264 core 157 r2969 d4099dd
Настройки программы : cabac=1/ref=11/deblock=1: -1: -1/analyse=0x3: 0x133/me=umh/subme=9/psy=1/psy_rd=1.00: 0.15/mixed_ref=0/me_range=32/chroma_me=1/trellis=2/8x8dct=1/cqm=0/deadzone=21, 11/fast_pskip=0/chroma_qp_offset=-3/threads=4/lookahead_threads=1/sliced_threads=0/nr=0/decimate=0/interlaced=0/bluray_compat=0/constrained_intra=0/bframes=8/b_pyramid=1/b_adapt=2/b_bias=0/direct=3/weightb=1/open_gop=0/weightp=1/keyint=240/keyint_min=23/scenecut=40/intra_refresh=0/rc_lookahead=60/rc=2pass/mbtree=1/bitrate=3000/ratetol=1.0/qcomp=0.60/qpmin=0/qpmax=69/qpstep=4/cplxblur=20.0/qblur=0.5/ip_ratio=1.40/aq=1: 1.00
Язык : English
Дата кодирования : UTC 2020-05-14 03: 09: 43
Дата пометки : UTC 2020-05-15 14: 46: 25
Codec configuration box : avcC
Аудио
Идентификатор : 2
Формат : AAC LC
Формат/Информация : Advanced Audio Codec Low Complexity
Идентификатор кодека : mp4a-40-2
Продолжительность : 2 ч. 10 м.
Продолжительность оригинала : 2 ч. 10 м.
Вид битрейта : Переменный
Битрейт : 192 Кбит/сек
Максимальный битрейт : 197 Кбит/сек
Каналы : 2 канала
Channel layout : L R
Частота : 48, 0 КГц
Частота кадров : 46, 875 кадров/сек (1024 SPF)
Метод сжатия : С потерями
Размер потока : 180 Мбайт (6%)
Размер потока оригинала : 180 Мбайт (6%)
Язык : Russian
Default : Да
Alternate group : 1
Дата пометки : UTC 2020-05-15 14: 46: 25
---Information 5/13/2020 8: 09: 42 PM info: frame I: 1351 Avg QP: 13.53 size: 120135
---Information 5/13/2020 8: 09: 42 PM info: frame P: 42108 Avg QP: 16.69 size: 35379
---Information 5/13/2020 8: 09: 42 PM info: frame B: 144894 Avg QP: 18.61 size: 8911Скриншоты:


Все одноименные релизы в Клубе
Время раздачи: с 13: 00 до 23: 00 (до появления первых 3-5 скачавших)

Другие торренты по теме:

  • Дело Ричарда Джуэлла / Richard Jewell (2019) DVDScr [MVO] [AD]
  • Дело Ричарда Джуэлла / Richard Jewell (2019) DVDScr [Line, AD]
  • Дело Ричарда Джуэлла / Richard Jewell (2019) BDRip [H.264 / 1080p] [PR]
  • Дело Ричарда Джуэлла / Richard Jewell (2019) WEB-DL [H.264 / 720p-LQ]
  • Дело Ричарда Джуэлла / Richard Jewell (2019) WEB-DL [H.264 / 1080p-LQ]
  • Дело Ричарда Джуэлла / Richard Jewell (2019) WEB-DL [H.264 / 1080p-LQ] [DVO]
  • Дело Ричарда Джуэлла / Richard Jewell (2019) BDRip [H.264 / 1080p]
  • Дело Ричарда Джуэлла / Richard Jewell (2019) BDRemux [H.264 / 1080p]

  • Посетители, находящиеся в группе Гости, не могут оставлять комментарии в данной новости.