Подписывайся на наш канал в Telegram https://t.me/torrentok и получи доступ к торрентам без ограничений!

Фантастические твари: Преступления Грин-де-Вальда / Fantastic Beasts: The Crimes of Grindelwald (2018) (2018) BDRip [MP4|1280x534] торрент скачать бесплатно

Фантастические твари: Преступления Грин-де-Вальда / Fantastic Beasts: The Crimes of Grindelwald (2018) (2018) BDRip [MP4|1280x534]Производство: Великобритания, США/Heyday Films, Warner Bros. Pictures
Жанр: Фэнтези, приключения, семейный
Режиссер: Дэвид Йейтс
Актеры: Эдди Редмэйн, Джонни Депп, Кэтрин Уотерстон, Элисон Судол, Дэн Фоглер, Джуд Лоу, Эзра Миллер, Зои Кравиц, Каллум Тернер, Клаудия Ким

Описание

Могущественный тёмный волшебник Геллерт Грин-де-Вальд пойман в Штатах, но не собирается молча сидеть в темнице и устраивает грандиозный побег. Теперь ничто не помешает ему добиться своей цели — установить превосходство волшебников над всеми немагическими существами на планете. Чтобы сорвать планы Грин-де-Вальда, Альбус Дамблдор обращается к своему бывшему студенту Ньюту Саламандеру, который соглашается помочь, не подозревая, какая опасность ему грозит. В раскалывающемся на части волшебном мире любовь и верность проверяются на прочность, а конфликт разделяет даже настоящих друзей и членов семей.

Возраст: 12+ (зрителям, достигшим 12 лет)
Рейтинг MPAA: PG-13 (детям до 13 лет просмотр нежелателен)
Дата мировой премьеры: 8 ноября 2018
Дата российской премьеры: 15 ноября 2018, Каро-Премьер
Релиз от: Androdot
Продолжительность: 02: 13: 50
Качество видео: BDRip
Перевод: Дублированный
Субтитры: Отсутствуют
Видео: AVC/H.264, 1280х534, ~3000 Kbps
Аудио: AAC, 2 ch, 192 Kbps
Общее
Полное имя : D: 2Fantastic.Beasts.The.Crimes.of.Grindelwald.Androdot.mp4
Формат : MPEG-4
Профиль формата : Base Media
Идентификатор кодека : isom (isom)
Размер файла : 2, 99 Гбайт
Продолжительность : 2 ч. 13 м.
Режим общего битрейта : Переменный
Общий поток : 3 199 Кбит/сек
Название фильма : Фантастические твари: Преступления Грин-де-Вальда/Fantastic Beasts: The Crimes of Grindelwald (2018)
Исполнитель : Эдди Редмэйн, Джонни Депп, Кэтрин Уотерстон, Элисон Судол, Дэн Фоглер, Эзра Миллер, Джуд Лоу, Кевин Гатри, Кармен Эджого, Вольф Рот, Зои Кравиц, Каллум Тернер, Дерек Ридделл, Корнелл Джон, Клаудия Ким, Ингвар Эггерт Сигюрдссон, Поппи Корби-Туч, Эндрю Тернер, Дэвид Сакурай, Клавдий Питерс
Жанр : Action Adventure
Тип содержимого : Short Film
Дата кодирования : UTC 2020-05-17 11: 49: 11
Дата пометки : UTC 2020-05-17 12: 06: 47
Программа кодирования : Megui
Обложка : Yes
Примечание : Androdot - NNM Mobile
ContentRating : mpaa|PG|200|
LongDescription : Могущественный тёмный волшебник Геллерт Грин-де-Вальд пойман в Штатах, но не собирается молча сидеть в темнице и устраивает грандиозный побег. Теперь ничто не помешает ему добиться своей цели — установить превосходство волшебников над всеми немагическими существами на планете. Чтобы сорвать планы Грин-де-Вальда, Альбус Дамблдор обращается к своему бывшему студенту Ньюту Саламандеру, который соглашается помочь, не подозревая, какая опасность ему грозит. В раскалывающемся на части волшебном мире любовь и верность проверяются на прочность, а конфликт разделяет даже настоящих друзей и членов семей.
Видео
Идентификатор : 1
Формат : AVC
Формат/Информация : Advanced Video Codec
Профиль формата : [email protected]
Настройки формата : CABAC/10 Ref Frames
Параметр CABAC формата : Да
Параметр RefFrames формата : 10 кадров
Идентификатор кодека : avc1
Идентификатор кодека/Информация : Advanced Video Coding
Продолжительность : 2 ч. 13 м.
Битрейт : 3 000 Кбит/сек
Максимальный битрейт : 14, 3 Мбит/сек
Ширина : 1 280 пикселей
Высота : 534 пикселя
Соотношение сторон : 2, 40: 1
Режим частоты кадров : Постоянный
Частота кадров : 23, 976 (24000/1001) кадра/сек
Цветовое пространство : YUV
Субдискретизация насыщенности : 4: 2: 0
Битовая глубина : 8 бит
Тип развёртки : Прогрессивная
Бит/(Пиксели*Кадры) : 0.183
Размер потока : 2, 80 Гбайт (94%)
Библиотека кодирования : x264 core 157 r2969 d4099dd
Настройки программы : cabac=1/ref=11/deblock=1: -1: -1/analyse=0x3: 0x133/me=umh/subme=9/psy=1/psy_rd=1.00: 0.15/mixed_ref=0/me_range=32/chroma_me=1/trellis=2/8x8dct=1/cqm=0/deadzone=21, 11/fast_pskip=0/chroma_qp_offset=-3/threads=4/lookahead_threads=1/sliced_threads=0/nr=0/decimate=0/interlaced=0/bluray_compat=0/constrained_intra=0/bframes=8/b_pyramid=1/b_adapt=2/b_bias=0/direct=3/weightb=1/open_gop=0/weightp=2/keyint=240/keyint_min=23/scenecut=40/intra_refresh=0/rc_lookahead=60/rc=2pass/mbtree=1/bitrate=3000/ratetol=1.0/qcomp=0.60/qpmin=0/qpmax=69/qpstep=4/cplxblur=20.0/qblur=0.5/ip_ratio=1.40/aq=1: 1.00
Язык : English
Дата кодирования : UTC 2020-05-17 05: 09: 22
Дата пометки : UTC 2020-05-17 11: 52: 01
Codec configuration box : avcC
Аудио
Идентификатор : 2
Формат : AAC LC
Формат/Информация : Advanced Audio Codec Low Complexity
Идентификатор кодека : mp4a-40-2
Продолжительность : 2 ч. 13 м.
Продолжительность оригинала : 2 ч. 13 м.
Вид битрейта : Переменный
Битрейт : 192 Кбит/сек
Максимальный битрейт : 197 Кбит/сек
Каналы : 2 канала
Channel layout : L R
Частота : 48, 0 КГц
Частота кадров : 46, 875 кадров/сек (1024 SPF)
Метод сжатия : С потерями
Размер потока : 184 Мбайт (6%)
Размер потока оригинала : 184 Мбайт (6%)
Язык : Russian
Default : Да
Alternate group : 1
Дата пометки : UTC 2020-05-17 11: 52: 01
Скриншоты:


Все одноименные релизы в Клубе
Время раздачи: 24/7 (круглосуточно) (до появления первых 3-5 скачавших)

Другие торренты по теме:

  • Фантастические твари и где они обитают / Fantastic Beasts and Where to Find Them (2016) DСPRip [2K] [Hi10P, Hi444PP] [Трейлер]
  • Фантастические твари и где они обитают / Fantastic Beasts and Where to Find Them (2016) DСPRip [2K] [Hi10P, Hi444PP] [Трейлер]
  • James Newton Howard - Fantastic Beasts and Where to Find Them / Фантастические твари и где они обитают (Original Motion Picture Soundtrack) (2016) [FLAC|Lossless|WEB-DL|tracks]<Soundtrack>
  • James Newton Howard - Fantastic Beasts and Where to Find Them / Фантастические твари и где они обитают (Original Motion Picture Soundtrack) (2016) [MP3|320 кб / с]<Soundtrack>
  • Фантастические твари и где они обитают / Fantastic Beasts and Where to Find Them (2016) CamRip
  • Фантастические твари и где они обитают / Fantastic Beasts and Where to Find Them (2016) HD-TS [Звук с CAMRip]
  • Фантастические твари и где они обитают / Fantastic Beasts and Where to Find Them (2016) WEBRip [H.264 / 720p-LQ] [Звук с TS]
  • Фантастические твари и где они обитают / Fantastic Beasts and Where to Find Them (2016) WEBRip [H.264 / 1080p-LQ] [Звук с TS]

  • Посетители, находящиеся в группе Гости, не могут оставлять комментарии в данной новости.