Подписывайся на наш канал в Telegram https://t.me/torrentok и получи доступ к торрентам без ограничений!

Чудо-женщина / Wonder Woman (2017) BDRip [MP4|1280x534] торрент скачать бесплатно

Чудо-женщина / Wonder Woman (2017) BDRip [MP4|1280x534]Производство: Гонконг, Китай, США/Warner Bros., Atlas Entertainment, Cruel Unusual Films
Жанр: Фантастика, Фэнтези, Боевик, Приключения, Военный
Режиссер: Пэтти Дженкинс
Актеры: Галь Гадот, Крис Пайн, Конни Нильсен, Робин Райт, Дэнни Хьюстон, Дэвид Тьюлис, Саид Тагмауи, Юэн Бремнер, Юджин Храбрый камень, Люси Дэвис

Описание

Она была Дианой — принцессой амазонок, обученной быть непобедимой воительницей. И когда на берегах ограждённого от внешнего мира райского острова, который служил ей родиной, терпит крушение американский пилот и рассказывает о серьёзном конфликте, бушующем во внешнем мире, Диана покидает свой дом, чтобы справиться с этой угрозой. И там, сражаясь бок о бок с человеком в войне за мир, Диана обнаружит всю полноту своей власти… и своё истинное предназначение.

Возраст: 16+ (зрителям, достигшим 16 лет)
Рейтинг MPAA: PG-13 (детям до 13 лет просмотр нежелателен)
Дата мировой премьеры: 15 мая 2017
Дата российской премьеры: 1 июня 2017, Каро-Премьер 3D
Релиз от: Androdot
Продолжительность: 02: 21: 16
Качество видео: BDRip
Перевод: Дублированный
Субтитры: Oтсутствуют
Видео: AVC/H.264, 1280x534, ~3500 Kbps
Аудио: AAC, 2 ch, 192 Kbps
Общее
Полное имя : D: 2Wonder Woman (2017) BDRip MP4.mp4
Формат : MPEG-4
Профиль формата : Base Media
Идентификатор кодека : isom (isom)
Размер файла : 3, 65 Гбайт
Продолжительность : 2 ч. 21 м.
Режим общего битрейта : Переменный
Общий поток : 3 698 Кбит/сек
Название фильма : Чудо-женщина/Wonder Woman (2017)
Исполнитель : Галь Гадот, Крис Пайн, Конни Нильсен, Робин Райт, Дэнни Хьюстон, Дэвид Тьюлис, Саид Тагмауи, Юэн Бремнер, Юджин Храбрый камень, Люси Дэвис
Жанр : Action Adventure
Тип содержимого : Short Film
Дата кодирования : UTC 2020-05-16 15: 28: 00
Дата пометки : UTC 2020-05-16 15: 44: 10
Программа кодирования : Megui
Обложка : Yes
Примечание : Androdot - NNM Mobile
ContentRating : mpaa|R|400|
LongDescription : Она была Дианой — принцессой амазонок, обученной быть непобедимой воительницей. И когда на берегах ограждённого от внешнего мира райского острова, который служил ей родиной, терпит крушение американский пилот и рассказывает о серьёзном конфликте, бушующем во внешнем мире, Диана покидает свой дом, чтобы справиться с этой угрозой. И там, сражаясь бок о бок с человеком в войне за мир, Диана обнаружит всю полноту своей власти… и своё истинное предназначение.
Видео
Идентификатор : 1
Формат : AVC
Формат/Информация : Advanced Video Codec
Профиль формата : [email protected]
Настройки формата : CABAC/10 Ref Frames
Параметр CABAC формата : Да
Параметр RefFrames формата : 10 кадров
Идентификатор кодека : avc1
Идентификатор кодека/Информация : Advanced Video Coding
Продолжительность : 2 ч. 21 м.
Битрейт : 3 500 Кбит/сек
Максимальный битрейт : 16, 3 Мбит/сек
Ширина : 1 280 пикселей
Высота : 534 пикселя
Соотношение сторон : 2, 40: 1
Режим частоты кадров : Постоянный
Частота кадров : 23, 976 (24000/1001) кадра/сек
Цветовое пространство : YUV
Субдискретизация насыщенности : 4: 2: 0
Битовая глубина : 8 бит
Тип развёртки : Прогрессивная
Бит/(Пиксели*Кадры) : 0.214
Размер потока : 3, 45 Гбайт (95%)
Библиотека кодирования : x264 core 157 r2969 d4099dd
Настройки программы : cabac=1/ref=11/deblock=1: -1: -1/analyse=0x3: 0x133/me=umh/subme=10/psy=1/psy_rd=1.00: 0.15/mixed_ref=0/me_range=32/chroma_me=1/trellis=2/8x8dct=1/cqm=0/deadzone=21, 11/fast_pskip=0/chroma_qp_offset=-3/threads=4/lookahead_threads=1/sliced_threads=0/nr=0/decimate=0/interlaced=0/bluray_compat=0/constrained_intra=0/bframes=10/b_pyramid=1/b_adapt=2/b_bias=0/direct=3/weightb=1/open_gop=0/weightp=1/keyint=240/keyint_min=23/scenecut=40/intra_refresh=0/rc_lookahead=60/rc=2pass/mbtree=1/bitrate=3500/ratetol=1.0/qcomp=0.60/qpmin=0/qpmax=69/qpstep=4/cplxblur=20.0/qblur=0.5/ip_ratio=1.40/aq=1: 1.00
Язык : English
Дата кодирования : UTC 2020-05-13 07: 03: 18
Дата пометки : UTC 2020-05-16 15: 33: 45
Codec configuration box : avcC
Аудио
Идентификатор : 2
Формат : AAC LC
Формат/Информация : Advanced Audio Codec Low Complexity
Идентификатор кодека : mp4a-40-2
Продолжительность : 2 ч. 21 м.
Вид битрейта : Переменный
Битрейт : 192 Кбит/сек
Максимальный битрейт : 202 Кбит/сек
Каналы : 2 канала
Channel layout : L R
Частота : 44, 1 КГц
Частота кадров : 43, 066 кадра/сек (1024 SPF)
Метод сжатия : С потерями
Размер потока : 194 Мбайт (5%)
Язык : Russian
Дата кодирования : UTC 2020-05-16 15: 32: 30
Дата пометки : UTC 2020-05-16 15: 33: 45
Скриншоты:


Все одноименные релизы в Клубе
Время раздачи: 24/7 (круглосуточно) (до появления первых 3-5 скачавших)

Другие торренты по теме:

  • Чудо-Женщина / Wonder Woman (2017) WEBRip [H.264 / 1080p] [Трейлер]
  • Чудо-женщина / Wonder Woman (2017) TS [AD]
  • Чудо-женщина / Wonder Woman (2017) WEBRip [H.264 / 1080p-LQ] [Звук с TS] [AD]
  • Чудо-женщина / Wonder Woman (2017) WEBRip [Звук с TS] [AD]
  • Чудо-женщина / Wonder Woman (2017) WEBRip [H.264 / 1080p-LQ] [MVO] [AD]
  • Чудо-женщина / Wonder Woman (2017) WEBRip [H.264 / 1080p-LQ] [Звук с TS]
  • Чудо-женщина / Wonder Woman (2017) AC3 2.0 [Solod]
  • Чудо-женщина / Wonder Woman (2017) WEBRip [H.264 / 1080p-LQ] [Line] [AD]

  • Посетители, находящиеся в группе Гости, не могут оставлять комментарии в данной новости.