Подписывайся на наш канал в Telegram https://t.me/torrentok и получи доступ к торрентам без ограничений!

Бладшот / Bloodshot (2020) BDRip [MP4|1280x536] торрент скачать бесплатно

Бладшот / Bloodshot (2020) BDRip [MP4|1280x536]Производство: Китай, США/Sony Pictures Entertainment (SPE), Bona Film Group, Columbia Pictures
Жанр: Фантастика, боевик
Режиссер: Дэйв Уилсон
Актеры: Вин Дизель, Гай Пирс, Ламорн Моррис, Эйса Гонсалес, Сэм Хьюэн, Сиддхартх Дхананджай, Талула Райли, Тоби Кеббелл, Йоуханнес Хёйкьюр Йоуханнессон, Алекс Эрнандез

Описание

Военный Рэй Гаррисон возвращается из очередной горячей точки к любимой красавице-жене. Супруги проводят отпуск в Европе, но счастье длится недолго — террористы, не сумев вытянуть из Рэя нужную им информацию, убивают жену, а затем и его самого. Но вскоре корпорация RST возвращает его к жизни. Армия нанороботов в крови превратила Рэя в бессмертного Бладшота, и теперь солдат наделен сверхсилой и способностью мгновенно самоисцеляться, вот только память оставляет желать лучшего. Но вскоре воспоминания о последних мгновениях жизни возвращаются, и Бладшот отправляется мстить за смерть жены.

Возраст: 16+ (зрителям, достигшим 16 лет)
Рейтинг MPAA: PG-13 (детям до 13 лет просмотр нежелателен)
Дата мировой премьеры: 20 февраля 2020
Дата российской премьеры: 12 марта 2020, СППР
Релиз от: Androdot
Продолжительность: 01: 49: 20
Качество видео: BDRip
Перевод: Дублированный
Субтитры: Oтсутствуют
Видео: AVC/H.264, 1280x536, ~3500 Kbps
Аудио: AAC, 2 ch, 192 Kbps
Общее
Полное имя : D: 2Bloodshot.2020.BDRip.720p.mp4
Формат : MPEG-4
Профиль формата : Base Media
Идентификатор кодека : isom (isom)
Размер файла : 2, 83 Гбайт
Продолжительность : 1 ч. 49 м.
Режим общего битрейта : Переменный
Общий поток : 3 699 Кбит/сек
Название фильма : Бладшот/Bloodshot (2020)
Исполнитель : Вин Дизель, Гай Пирс, Ламорн Моррис, Эйса Гонсалес, Сэм Хьюэн, Сиддхартх Дхананджай, Талула Райли, Тоби Кеббелл, Йоуханнес Хёйкьюр Йоуханнессон, Алекс Эрнандез
Жанр : Action Adventure
Тип содержимого : Short Film
Дата кодирования : UTC 2020-05-18 00: 19: 53
Дата пометки : UTC 2020-05-18 00: 59: 01
Программа кодирования : Megui
Обложка : Yes
Примечание : Androdot - NNM Mobile
ContentRating : mpaa|PG-13|300|
LongDescription : Военный Рэй Гаррисон возвращается из очередной горячей точки к любимой красавице-жене. Супруги проводят отпуск в Европе, но счастье длится недолго — террористы, не сумев вытянуть из Рэя нужную им информацию, убивают жену, а затем и его самого. Но вскоре корпорация RST возвращает его к жизни. Армия нанороботов в крови превратила Рэя в бессмертного Бладшота, и теперь солдат наделен сверхсилой и способностью мгновенно самоисцеляться, вот только память оставляет желать лучшего. Но вскоре воспоминания о последних мгновениях жизни возвращаются, и Бладшот отправляется мстить за смерть жены.
Видео
Идентификатор : 1
Формат : AVC
Формат/Информация : Advanced Video Codec
Профиль формата : [email protected]
Настройки формата : CABAC/12 Ref Frames
Параметр CABAC формата : Да
Параметр RefFrames формата : 12 кадров
Идентификатор кодека : avc1
Идентификатор кодека/Информация : Advanced Video Coding
Продолжительность : 1 ч. 49 м.
Битрейт : 3 500 Кбит/сек
Максимальный битрейт : 25, 3 Мбит/сек
Ширина : 1 280 пикселей
Высота : 536 пикселей
Соотношение сторон : 2, 40: 1
Режим частоты кадров : Постоянный
Частота кадров : 23, 976 (24000/1001) кадра/сек
Цветовое пространство : YUV
Субдискретизация насыщенности : 4: 2: 0
Битовая глубина : 8 бит
Тип развёртки : Прогрессивная
Бит/(Пиксели*Кадры) : 0.213
Размер потока : 2, 67 Гбайт (95%)
Библиотека кодирования : x264 core 157 r2969 d4099dd
Настройки программы : cabac=1/ref=12/deblock=1: 1: -3/analyse=0x3: 0x133/me=umh/subme=9/psy=1/psy_rd=1.00: 0.00/mixed_ref=0/me_range=32/chroma_me=1/trellis=2/8x8dct=1/cqm=0/deadzone=21, 11/fast_pskip=0/chroma_qp_offset=-2/threads=6/lookahead_threads=1/sliced_threads=0/nr=0/decimate=0/interlaced=0/bluray_compat=0/constrained_intra=0/bframes=8/b_pyramid=2/b_adapt=2/b_bias=0/direct=3/weightb=1/open_gop=0/weightp=2/keyint=240/keyint_min=23/scenecut=40/intra_refresh=0/rc_lookahead=60/rc=2pass/mbtree=1/bitrate=3500/ratetol=1.0/qcomp=0.60/qpmin=0/qpmax=69/qpstep=4/cplxblur=20.0/qblur=0.5/ip_ratio=1.40/aq=1: 1.00
Язык : English
Дата кодирования : UTC 2020-05-17 23: 12: 40
Дата пометки : UTC 2020-05-18 00: 24: 01
Codec configuration box : avcC
Аудио
Идентификатор : 2
Формат : AAC LC
Формат/Информация : Advanced Audio Codec Low Complexity
Идентификатор кодека : mp4a-40-2
Продолжительность : 1 ч. 49 м.
Продолжительность оригинала : 1 ч. 49 м.
Вид битрейта : Переменный
Битрейт : 192 Кбит/сек
Максимальный битрейт : 227 Кбит/сек
Каналы : 2 канала
Channel layout : L R
Частота : 48, 0 КГц
Частота кадров : 46, 875 кадров/сек (1024 SPF)
Метод сжатия : С потерями
Размер потока : 151 Мбайт (5%)
Размер потока оригинала : 151 Мбайт (5%)
Язык : Russian
Default : Да
Alternate group : 1
Дата пометки : UTC 2020-05-18 00: 24: 01

---Information 18.05.2020 2: 12: 39 x264 info: frame I: 1616 Avg QP: 14.40 size: 94012
---Information 18.05.2020 2: 12: 39 x264 info: frame P: 43478 Avg QP: 17.46 size: 31756
---Information 18.05.2020 2: 12: 39 x264 info: frame B: 112178 Avg QP: 19.38 size: 11913
---Information 18.05.2020 2: 12: 39 x264 info: consecutive B-frames: 5.7% 5.9% 14.6% 31.3% 14.2% 20.3% 3.8% 3.5% 0.7%
---Information 18.05.2020 2: 12: 39 x264 info: mb I I16..4: 15.3% 66.3% 18.4%
---Information 18.05.2020 2: 12: 39 x264 info: mb P I16..4: 5.9% 13.7% 2.2% P16..4: 53.3% 10.1% 6.6% 0.4% 0.1% skip: 7.7%
---Information 18.05.2020 2: 12: 39 x264 info: mb B I16..4: 0.3% 1.0% 0.2% B16..8: 44.6% 7.9% 2.1% direct: 7.3% skip: 36.5% L0: 45.3% L1: 45.5% BI: 9.2%
---Information 18.05.2020 2: 12: 39 x264 info: 8x8 transform intra: 63.7% inter: 65.2%
---Information 18.05.2020 2: 12: 39 x264 info: direct mvs spatial: 97.4% temporal: 2.6%
---Information 18.05.2020 2: 12: 39 x264 info: coded y, uvDC, uvAC intra: 67.4% 84.4% 66.0% inter: 25.6% 37.8% 19.5%
---Information 18.05.2020 2: 12: 39 x264 info: i16 v, h, dc, p: 31% 21% 5% 42%
---Information 18.05.2020 2: 12: 39 x264 info: i8 v, h, dc, ddl, ddr, vr, hd, vl, hu: 11% 9% 8% 9% 14% 13% 13% 11% 11%
---Information 18.05.2020 2: 12: 39 x264 info: i4 v, h, dc, ddl, ddr, vr, hd, vl, hu: 11% 11% 6% 10% 15% 13% 13% 10% 12%
---Information 18.05.2020 2: 12: 39 x264 info: i8c dc, h, v, p: 38% 22% 18% 22%
---Information 18.05.2020 2: 12: 39 x264 info: Weighted P-Frames: Y: 3.2% UV: 2.2%
---Information 18.05.2020 2: 12: 39 x264 info: ref P L0: 50.8% 6.6% 15.6% 7.0% 5.1% 3.8% 3.1% 2.0% 1.7% 1.5% 1.3% 1.3% 0.2% 0.0%
---Information 18.05.2020 2: 12: 39 x264 info: ref B L0: 73.9% 11.5% 5.2% 2.7% 1.8% 1.5% 1.1% 0.7% 1.0% 0.4% 0.2%
---Information 18.05.2020 2: 12: 39 x264 info: ref B L1: 94.9% 5.1%
---Information 18.05.2020 2: 12: 39 x264 info: kb/s: 3499.01Скриншоты:


Все одноименные релизы в Клубе
Время раздачи: 24/7 (круглосуточно) (до появления первых 3-5 скачавших)

Другие торренты по теме:

  • Бладшот / Bloodshot (2020) CamRip [DVO, AD]
  • Бладшот / Bloodshot (2020) WEB-DLRip [H.264 / 1080p-LQ] [Line, AD]
  • Бладшот / Bloodshot (2020) WEB-DLRip [H.264 / 720p-LQ] [Line, AD]
  • Бладшот / Bloodshot (2020) WEB-DLRip [Line, AD]
  • Бладшот / Bloodshot (2020) WEB-DL [H.265 / 2160p] [4K, SDR, 10-bit] [EN / EN Sub]
  • Бладшот / Bloodshot (2020) WEB-DL [H.264 / 1080p] [MVO]
  • Бладшот / Bloodshot (2020) WEB-DL [H.264 / 720p] [MVO]
  • Бладшот / Bloodshot (2020) WEB-DLRip [MVO]

  • Посетители, находящиеся в группе Гости, не могут оставлять комментарии в данной новости.