Подписывайся на наш канал в Telegram https://t.me/torrentok и получи доступ к торрентам без ограничений!

Спутник (2020) WEB-DL [MP4|1920x804] торрент скачать бесплатно

Спутник (2020) WEB-DL [MP4|1920x804]Производство: Россия, Кинокомпания Водород, Национальная Медиа Группа (НМГ), Art Pictures Studio, Hype Film, Sony Pictures, Канал СТС
Жанр: Фантастика, Триллер, Драма
Режиссер: Егор Абраменко
Актеры: Оксана Акиньшина, Пётр Фёдоров, Фёдор Бондарчук, Антон Васильев, Павел Устиновн

Описание

СССР, 1983 год. На землю возвращается космический аппарат, но от людей скрывают, что из двух космонавтов живым возвращается только один. Что произошло на борту, остается загадкой, но факты указывают на то, что космонавт столкнулся в полете с новой формой жизни и вернулся на землю не совсем один… Нейрофизиолог Татьяна Климова пытается докопаться до правды и спасти героя, ставшего для нее небезразличным.

Возраст: 16+ (зрителям, достигшим 16 лет)
Релиз от: NNMClub/Androdot
Продолжительность: 01: 53: 44
Качество видео: WEB-DL
Перевод: Не требуется (русский)
Субтитры: Отсутствуют
Видео: AVC/H.264, 1920x804, ~3419 Kbps
Аудио: AAC, 2 ch, 192 Kbps
бщее
Полное имя : D: 2Спутник.2020.WEB-DL.MP4.Androdot.mp4
Формат : MPEG-4
Профиль формата : Base Media
Идентификатор кодека : isom (isom/avc1)
Размер файла : 2, 93 Гбайт
Продолжительность : 1 ч. 53 м.
Режим общего битрейта : Переменный
Общий поток : 3 691 Кбит/сек
Название фильма : Спутник (2020)
Исполнитель : Оксана Акиньшина, Пётр Фёдоров, Фёдор Бондарчук, Антон Васильев, Павел Устиновн
Жанр : Horror
Тип содержимого : Short Film
Дата кодирования : UTC 2020-05-18 14: 16: 07
Дата пометки : UTC 2020-05-18 14: 47: 42
Программа кодирования : Megui
Обложка : Yes
Примечание : Androdot - NNM Mobile
ContentRating : mpaa|R|400|
LongDescription : СССР, 1983 год. На землю возвращается космический аппарат, но от людей скрывают, что из двух космонавтов живым возвращается только один. Что произошло на борту, остается загадкой, но факты указывают на то, что космонавт столкнулся в полете с новой формой жизни и вернулся на землю не совсем один… Нейрофизиолог Татьяна Климова пытается докопаться до правды и спасти героя, ставшего для нее небезразличным.
Видео
Идентификатор : 1
Формат : AVC
Формат/Информация : Advanced Video Codec
Профиль формата : [email protected]
Настройки формата : CABAC/5 Ref Frames
Параметр CABAC формата : Да
Параметр RefFrames формата : 5 кадров
Параметр GOP формата : M=4, N=50
Идентификатор кодека : avc1
Идентификатор кодека/Информация : Advanced Video Coding
Продолжительность : 1 ч. 53 м.
Вид битрейта : Переменный
Битрейт : 3 490 Кбит/сек
Максимальный битрейт : 40, 0 Мбит/сек
Ширина : 1 920 пикселей
Высота : 804 пикселя
Соотношение сторон : 2, 40: 1
Режим частоты кадров : Постоянный
Частота кадров : 25, 000 кадров/сек
Цветовое пространство : YUV
Субдискретизация насыщенности : 4: 2: 0
Битовая глубина : 8 бит
Тип развёртки : Прогрессивная
Бит/(Пиксели*Кадры) : 0.090
Размер потока : 2, 77 Гбайт (95%)
Язык : Russian
Дата кодирования : UTC 2020-05-18 14: 16: 07
Дата пометки : UTC 2020-05-18 14: 21: 43
Цветовой диапазон : Limited
Основные цвета : BT.709
Характеристики трансфера : BT.709
Коэффициенты матрицы : BT.709
Codec configuration box : avcC
Аудио
Идентификатор : 2
Формат : AAC LC
Формат/Информация : Advanced Audio Codec Low Complexity
Идентификатор кодека : mp4a-40-2
Продолжительность : 1 ч. 53 м.
Продолжительность оригинала : 1 ч. 53 м.
Вид битрейта : Переменный
Битрейт : 192 Кбит/сек
Максимальный битрейт : 195 Кбит/сек
Каналы : 2 канала
Channel layout : L R
Частота : 48, 0 КГц
Частота кадров : 46, 875 кадров/сек (1024 SPF)
Метод сжатия : С потерями
Размер потока : 156 Мбайт (5%)
Размер потока оригинала : 156 Мбайт (5%)
Язык : Russian
Default : Да
Alternate group : 1
Дата пометки : UTC 2020-05-18 14: 21: 43
Скриншоты:


Все одноименные релизы в Клубе
Время раздачи: 24/7 (круглосуточно) (до появления первых 3-5 скачавших)

Другие торренты по теме:

  • Спутник (2020) WEB-DL [H.264 / 1080p-LQ]
  • Спутник (2020) WEB-DL [1080p] ATV
  • Спутник (2020) WEB-DL [720p] ATV
  • Спутник (2020) WEB-DL [H.264 / 1080p-LQ]
  • Спутник (2020) WEB-DL [1080p] ATV

  • Посетители, находящиеся в группе Гости, не могут оставлять комментарии в данной новости.