Подписывайся на наш канал в Telegram https://t.me/torrentok и получи доступ к торрентам без ограничений!

Розыскник (2013) WEBRip [H.264] (сезон 1, серии 1-4 из 4) [MP4|1920x1080] торрент скачать бесплатно

Розыскник (2013) WEBRip [H.264] (сезон 1, серии 1-4 из 4) [MP4|1920x1080]Производство: Россия/Триикс Медиа
Жанр: Драма, криминал
Режиссер: Армен Назикян
Актеры: Александр Лыков, Наталья Круглова, Владислав Резник, Кристина Бродская, Алексей Красноцветов, Сергей Гамов, Константин Фильченков, Антон Пулит, Олег Жилин, Артур Ваха

Описание

Когда-то Виктор Попов пришел на службу в милицию, чтобы служить и защищать. Но прошло время, и Виктор стал своеобразным заложником системы. Вместо того, чтобы бороться с преступностью, он, профессиональный розыскник, вместе со своими коллегами, вынужден выполнять различные распоряжения своего непосредственного начальника полковника Костромина. В последней попытке остаться человеком, а не хладнокровным оборотнем в погонах, Виктор вынужден вступить в противостояние со своими коллегами...

Возраст: 16+ (зрителям, достигшим 16 лет)
Продолжительность: 00: 47: 00 серия
Качество видео: WEBRip 1080р
Перевод: Не требуется (русский)
Субтитры: Отсутствуют
Видео: AVC/H.264, 1920х1080, ~1418 kbps
Аудио: AAC, 2 ch, 128 kbps
General
Complete name : F: РозыскникРозыскник 2 серия.mp4
Format : MPEG-4
Format profile : Base Media
Codec ID : isom (isom/iso2/avc1/mp41)
File size : 521 MiB
Duration : 46 min 55 s
Overall bit rate : 1 552 kb/s
Writing application : Lavf58.20.100
Video
ID : 1
Format : AVC
Format/Info : Advanced Video Codec
Format profile : [email protected]
Format settings : CABAC/3 Ref Frames
Format settings, CABAC : Yes
Format settings, ReFrames : 3 frames
Codec ID : avc1
Codec ID/Info : Advanced Video Coding
Duration : 46 min 55 s
Duration_FirstFrame : -40 ms
Bit rate : 1 418 kb/s
Width : 1 920 pixels
Height : 1 080 pixels
Display aspect ratio : 16: 9
Frame rate mode : Variable
Frame rate : 25.000 FPS
Minimum frame rate : 25.000 FPS
Maximum frame rate : 25.014 FPS
Color space : YUV
Chroma subsampling : 4: 2: 0
Bit depth : 8 bits
Scan type : Progressive
Bits/(Pixel*Frame) : 0.027
Stream size : 476 MiB (91%)
Writing library : x264 core 155 r2901 7d0ff22
Color range : Limited
Color primaries : BT.709
Transfer characteristics : BT.709
Matrix coefficients : BT.709
Codec configuration box : avcC
Audio
ID : 2
Format : AAC LC
Format/Info : Advanced Audio Codec Low Complexity
Codec ID : mp4a-40-2
Duration : 46 min 55 s
Bit rate mode : Constant
Bit rate : 128 kb/s
Channel(s) : 2 channels
Channel layout : L R
Sampling rate : 44.1 kHz
Frame rate : 43.066 FPS (1024 SPF)
Compression mode : Lossy
Stream size : 43.0 MiB (8%)
Default : Yes
Alternate group : 1
Скриншоты:


Все одноименные релизы в Клубе
Время раздачи: 24/7 (до появления первых 3-5 скачавших)

Другие торренты по теме:

  • Розыскник (2013) WEB-DLRip (серии 1-4 из 4)

  • Посетители, находящиеся в группе Гости, не могут оставлять комментарии в данной новости.