Подписывайся на наш канал в Telegram https://t.me/torrentok и получи доступ к торрентам без ограничений!

Легенда для оперши (2013) WEBRip [H.264] (сезон 1, серии 1-4 из 4) [MP4|1920x1080] торрент скачать бесплатно

Легенда для оперши (2013) WEBRip [H.264] (сезон 1, серии 1-4 из 4) [MP4|1920x1080]Производство: Россия | Триикс Медиа
Жанр: Криминал, детектив, драма
Режиссер: Игорь Копылов
Актеры: Алексей Горбунов, Павел Баршак, Елена Радевич, Антон Багмет, Валерий Чебурканов, Никита Рогов, Олег Хамитов, Николай Кий, Борис Бирман, Евгений Филатов

Описание

Александра Мелихова – молодая сотрудница полиции, работающая в разбойном отделе. Она готовится к свадьбе, но за несколько дней до этого события у Александры убивают отца - полковника Мелихова, возглавлявшего уголовный розыск. Мелихов убит из своего же собственного пистолета, однако оружие убийца унес с собой. В это же время в город приезжает банда, которая намерена ограбить несколько ювелирных магазинов. Пистолет полковника Мелихова оказывается у них, а тем временем следствие считает, что отец Александры был связан с криминалом, и его убил кто-то из подельников.

Возраст: 16+ (зрителям, достигшим 16 лет)
Продолжительность: ~00: 45: 00 серия
Качество видео: WEBRip 1080р
Перевод: Не требуется (Русский)
Субтитры: Отсутствуют
Видео: AVC/H.264, 1920x1080, ~1474 kbps
Аудио: AAC, 2 ch, 128 kbps - русский
General
Complete name : D: Легенда для опершиЛегенда для оперши 1 серия.mp4
Format : MPEG-4
Format profile : Base Media
Codec ID : isom (isom/iso2/avc1/mp41)
File size : 528 MiB
Duration : 45 min 56 s
Overall bit rate : 1 608 kb/s
Writing application : Lavf58.20.100
Video
ID : 1
Format : AVC
Format/Info : Advanced Video Codec
Format profile : [email protected]
Format settings : CABAC/3 Ref Frames
Format settings, CABAC : Yes
Format settings, ReFrames : 3 frames
Codec ID : avc1
Codec ID/Info : Advanced Video Coding
Duration : 45 min 56 s
Duration_FirstFrame : -40 ms
Bit rate : 1 474 kb/s
Width : 1 920 pixels
Height : 1 080 pixels
Display aspect ratio : 16: 9
Frame rate mode : Variable
Frame rate : 25.000 FPS
Minimum frame rate : 25.000 FPS
Maximum frame rate : 25.014 FPS
Color space : YUV
Chroma subsampling : 4: 2: 0
Bit depth : 8 bits
Scan type : Progressive
Bits/(Pixel*Frame) : 0.028
Stream size : 484 MiB (92%)
Writing library : x264 core 155 r2901 7d0ff22
Color range : Limited
Color primaries : BT.709
Transfer characteristics : BT.709
Matrix coefficients : BT.709
Codec configuration box : avcC
Audio
ID : 2
Format : AAC LC
Format/Info : Advanced Audio Codec Low Complexity
Codec ID : mp4a-40-2
Duration : 45 min 56 s
Bit rate mode : Constant
Bit rate : 128 kb/s
Channel(s) : 2 channels
Channel layout : L R
Sampling rate : 44.1 kHz
Frame rate : 43.066 FPS (1024 SPF)
Compression mode : Lossy
Stream size : 42.1 MiB (8%)
Default : Yes
Alternate group : 1
Скриншоты:


Все одноименные релизы в Клубе
Время раздачи: 24/7 (до появления первых 3-5 скачавших)

Другие торренты по теме:

  • Легенда для оперши (2013) HDTVRip [H.264] (серии 1-4 из 4)

  • Посетители, находящиеся в группе Гости, не могут оставлять комментарии в данной новости.