Подписывайся на наш канал в Telegram https://t.me/torrentok и получи доступ к торрентам без ограничений!

LEGO Ниндзяго: Мастера кружитцу 11 сезон / LEGO Ninjago: Secrets of the Forbidden Spinjitzu (2018-2019) WEBRip торрент скачать бесплатно

LEGO Ниндзяго: Мастера кружитцу 11 сезон / LEGO Ninjago: Secrets of the Forbidden Spinjitzu (2018-2019) WEBRipПроизводство: Дания, Сингапур, Канада, США
Жанр: Детский, Приключения
Режиссер: Питер Хауснер, Мартин Скоу

Описание

Свитки Запрещенного Кружитцу хранились в секрете тысячу лет. С полным основанием злая змеиная колдунья Асфира была изгнана вместе со свитками — но теперь она вернулась, жаждущая мести, и готова снова впиться клыками в свитки и вернуть свои силы. Силы ниндзя, дружба, убеждения и лояльность будут подвергнуты испытанию, как никогда раньше.
Зейн был захвачен злым Ледяным императором. Ниндзя предприняли отчаянную попытку спасти его. Но если они хотят снова увидеть своего друга, им придется сражаться с ордами Самураев метели, когда они пробираются через Неверленд, откуда ни один ниндзя никогда не возвращался. Присоединяйтесь к приключениям Нии, Кая, Джея, Зейна, Коула, Ллойда, мастера Ву, в 30 новых захватывающих эпизодах. Соберись, и поехали!

Продолжительность: серии по 00: 11: 01
Качество видео: WEBRip
Перевод: Дублированный
Субтитры: отсутствуют
Видео: AVC/H.264, 1920x1080, ~5 000 Kbps
Аудио: AAC, 2 ch, 192 Kbps
Format : MPEG-4
Format profile : Base Media/Version 2
Codec ID : mp42 (isom/iso2/avc1/mp41)
File size : 410 MiB
Duration : 11 min 1 s
Overall bit rate : 5 197 kb/s
Writing application : HandBrake rev0 2014100499
Video
ID : 1
Format : AVC
Format/Info : Advanced Video Codec
Format profile : [email protected]
Format settings : CABAC/4 Ref Frames
Format settings, CABAC : Yes
Format settings, ReFrames : 4 frames
Codec ID : avc1
Codec ID/Info : Advanced Video Coding
Duration : 11 min 1 s
Bit rate : 5 000 kb/s
Width : 1 920 pixels
Height : 1 080 pixels
Display aspect ratio : 16: 9
Frame rate mode : Constant
Frame rate : 25.000 FPS
Color space : YUV
Chroma subsampling : 4: 2: 0
Bit depth : 8 bits
Scan type : Progressive
Bits/(Pixel*Frame) : 0.096
Stream size : 394 MiB (96%)
Writing library : x264 core 142 r2431 a5831aa
Encoding settings : cabac=1/ref=3/deblock=0: -1: -1/analyse=0x1: 0x111/me=hex/subme=7/psy=1/psy_rd=1.00: 0.15/mixed_ref=1/me_range=16/chroma_me=1/trellis=1/8x8dct=0/cqm=0/deadzone=21, 11/fast_pskip=1/chroma_qp_offset=-3/threads=32/lookahead_threads=5/sliced_threads=0/nr=0/decimate=1/interlaced=0/bluray_compat=0/constrained_intra=0/bframes=3/b_pyramid=2/b_adapt=1/b_bias=0/direct=1/weightb=1/open_gop=0/weightp=2/keyint=250/keyint_min=25/scenecut=40/intra_refresh=0/rc_lookahead=40/rc=2pass/mbtree=1/bitrate=5000/ratetol=1.0/qcomp=0.60/qpmin=0/qpmax=69/qpstep=4/cplxblur=20.0/qblur=0.5/vbv_maxrate=20000/vbv_bufsize=25000/nal_hrd=none/filler=0/ip_ratio=1.40/aq=1: 1.00
Color range : Limited
Color primaries : BT.709
Transfer characteristics : BT.709
Matrix coefficients : BT.709
Codec configuration box : avcC
Audio
ID : 2
Format : AAC LC
Format/Info : Advanced Audio Codec Low Complexity
Codec ID : mp4a-40-2
Duration : 11 min 1 s
Bit rate mode : Constant
Bit rate : 192 kb/s
Channel(s) : 2 channels
Channel layout : L R
Sampling rate : 48.0 kHz
Frame rate : 46.875 FPS (1024 SPF)
Compression mode : Lossy
Stream size : 15.1 MiB (4%)
Title : Stereo/Stereo
Language : Russian
Default : Yes
Alternate group : 1
Скриншоты:


Все одноименные релизы в Клубе
Время раздачи: до появления первых 3-5 скачавших

Другие торренты по теме:

  • LEGO Ниндзяго: Мастера кружитцу / LEGO Ninjago: Masters of Spinjitzu (2012) WEB-DL [720p] (Сезон: 2, Серии: 1-13 из 13) скачать через торрент бесплатно
  • LEGO Ниндзяго: Мастера кружитцу / LEGO Ninjago: Masters of Spinjitzu (2011-2012) WEB-DL [1080p] (Сезон: 1, Серии: 1-13 из 13) скачать через торрент бесплатно
  • Лего Ніндзяго: Майстри Спінжитсу / LEGO Ниндзяго: Мастера кружитцу / LEGO Ninjago: Masters of Spinjitzu (2011-2015) WEB-DLRip [720p] (Сезон 0-5) [Ukr,Eng]
  • LEGO Ниндзяго: Мастера кружитцу / LEGO Ninjago: Masters of Spinjitzu (2016) SATRip [H.264] (Сезон 6, серии 10 из 10) [UKR]
  • LEGO Ниндзяго: Мастера кружитцу / LEGO Ninjago: Masters of Spinjitzu (2013) WEB-DL [H.264 / 1080p] (Сезон 3, серии 8 из 8)
  • LEGO Ниндзяго: Мастера кружитцу / LEGO Ninjago: Masters of Spinjitzu (2014) WEB-DL [H.264 / 720p] (Сезон 4, серии 10 из 10)
  • LEGO Ниндзяго: Мастера кружитцу / LEGO Ninjago: Masters of Spinjitzu (2012) BDRip [H.264 / 720p] (Сезон 2, серии 13 из 13)
  • LEGO Ниндзяго: Мастера кружитцу / LEGO Ninjago: Masters of Spinjitzu (2011) WEB-DL [H.264 / 720p] (Сезон 0 - 1, серии 15 из 15)

  • Посетители, находящиеся в группе Гости, не могут оставлять комментарии в данной новости.