Подписывайся на наш канал в Telegram https://t.me/torrentok и получи доступ к торрентам без ограничений!

Перцы (2013) WEBRip [H.264] [MP4|1920x1080] торрент скачать бесплатно

Перцы (2013) WEBRip [H.264] [MP4|1920x1080]Производство: Россия | Триикс Медиа
Жанр: мелодрама, комедия
Режиссер: Игорь Копылов
Актеры: Александр Ткачев, Денис Рожков, Татьяна Колганова, Кирилл Полухин, Сергей Кошонин, Максим Белбородов, Денис Старков, Сергей Воробьёв, Юлия Топольницкая, Игорь Царев

Описание

Максим Савельев, выпускник 11-го класса, эгоцентричный и разбалованный сын олигарха, получает в подарок телевизионную передачу. Но на первой же съемке Максим узнает, что участие в передаче не сможет его прославить, а наоборот это шоу опозорит его в глазах друзей. Дело в том, что передача посвящена празднику выпускников Алые Паруса, и главными героями там будут выпускники из разных социальных слоев (Егор инвалид в коляске, Николай сын военного с приступами страха и Аня воспитанная в чрезмерно строгих правилах), а кульминационным событием передачи станет проплыв на корабле по Неве…

Возраст: 16+ (зрителям, достигшим 16 лет)
Продолжительность: 01: 33: 51
Качество видео: WEBRip 1080р
Перевод: Не требуется (русский)
Субтитры: Отсутствуют
Видео: AVC/H.264, 1920x1080, ~1590 kbps
Аудио: AAC, 2 ch, 128 kbps - русский
General
Complete name : D: Перцы_1080p.mp4
Format : MPEG-4
Format profile : Base Media
Codec ID : isom (isom/iso2/avc1/mp41)
File size : 1.13 GiB
Duration : 1 h 33 min
Overall bit rate : 1 724 kb/s
Writing application : Lavf58.20.100
Video
ID : 1
Format : AVC
Format/Info : Advanced Video Codec
Format profile : [email protected]
Format settings : CABAC/3 Ref Frames
Format settings, CABAC : Yes
Format settings, ReFrames : 3 frames
Codec ID : avc1
Codec ID/Info : Advanced Video Coding
Duration : 1 h 33 min
Duration_FirstFrame : -40 ms
Bit rate : 1 590 kb/s
Width : 1 920 pixels
Height : 1 080 pixels
Display aspect ratio : 16: 9
Frame rate mode : Variable
Frame rate : 25.000 FPS
Minimum frame rate : 25.000 FPS
Maximum frame rate : 25.014 FPS
Color space : YUV
Chroma subsampling : 4: 2: 0
Bit depth : 8 bits
Scan type : Progressive
Bits/(Pixel*Frame) : 0.080
Stream size : 1.04 GiB (92%)
Writing library : x264 core 155 r2901 7d0ff22
Color range : Limited
Color primaries : BT.709
Transfer characteristics : BT.709
Matrix coefficients : BT.709
Codec configuration box : avcC
Audio
ID : 2
Format : AAC LC
Format/Info : Advanced Audio Codec Low Complexity
Codec ID : mp4a-40-2
Duration : 1 h 33 min
Bit rate mode : Constant
Bit rate : 128 kb/s
Channel(s) : 2 channels
Channel layout : L R
Sampling rate : 44.1 kHz
Frame rate : 43.066 FPS (1024 SPF)
Compression mode : Lossy
Stream size : 85.9 MiB (7%)
Default : Yes
Alternate group : 1
Скриншоты:


Все одноименные релизы в Клубе
Время раздачи: 24/7 (до появления первых 3-5 скачавших)

Другие торренты по теме:

  • Голые перцы / Search Party (2014) WEB-DLRip [Звук с TS] скачать через торрент бесплатно
  • Голые перцы / Search Party (2014) WEB-DLRip [Line]
  • Голые перцы / Search Party (2014) WEB-DL [H.264 / 1080p-LQ] [Line]
  • Голые перцы / Search Party (2014) WEB-DLRip [480p] iPod
  • Голые перцы / Search Party (2014) WEB-DLRip [576p] iPad
  • Голые перцы / Search Party (2014) WEB-DL [Line] скачать через торрент бесплатно
  • Голые перцы / Search Party (2014) WEB-DL [H.264 / 720p-LQ] [Line] скачать через торрент бесплатно
  • Голые перцы / Search Party (2014) WEB DLRip [H.264] скачать через торрент бесплатно

  • Посетители, находящиеся в группе Гости, не могут оставлять комментарии в данной новости.