Подписывайся на наш канал в Telegram https://t.me/torrentok и получи доступ к торрентам без ограничений!

Тайна последней главы (2019) [H.264] (сезон 1, серии 1-4 из 4) [MP4|1920x1080] торрент скачать бесплатно

Тайна последней главы (2019) [H.264] (сезон 1, серии 1-4 из 4) [MP4|1920x1080]Производство: Россия | Magic Factory
Жанр: Детектив, триллер
Режиссер: Артур Румынский
Актеры: Александра Никифорова, Константин Соловьев, Константин Балакирев, Евгений Воловенко, Елена Морозова, Ирина Бразговка, Любовь Матюшина, Ксения Щербакова, Елена Полякова, Евгений Коряковский и др.

Описание

Одним утром, жизнь переводчицы Ланы Берсеньевой раскололась на до и после. Сначала Лана нашла мёртвой свою собаку, а вскоре была убита и её няня Софико, а муж оказался главным подозреваемым. Чтобы не сойти с ума и занять голову чем-то, кроме переживаний, Лана начинает переводить роман Ханса Лундстрема, в котором, к своему ужасу, обнаруживает явные намеки на кошмары, происходящие вокруг неё. Каждая новая глава начинается с предсказания нового убийства. Лана понимает - убийца находится совсем рядом с ней, он контролирует её мысли и поступки, и у неё нет ни единого шанса выйти живой из игры, которую он затеял.

Продолжительность: ~00: 47: 00 серия
Качество видео: WEBRip 1080р
Перевод: Не требуется (русский)
Субтитры: Отсутствуют
Видео: AVC/H.264, 1920x1080, ~1560 kbps
Аудио: AC3, 2 ch, 192 kbps - русский
General
Complete name : D: Тайна_последней_главы_2019_WEBRip_1080pТайна_последней_главы_2019_WEBRip_1080p_01.mp4
Format : MPEG-4
Format profile : Base Media
Codec ID : isom (isom/iso2/avc1/mp41)
File size : 492 MiB
Duration : 47 min 4 s
Overall bit rate : 1 760 kb/s
Writing application : Lavf58.29.100
Video
ID : 1
Format : AVC
Format/Info : Advanced Video Codec
Format profile : [email protected]
Format settings : CABAC/3 Ref Frames
Format settings, CABAC : Yes
Format settings, ReFrames : 3 frames
Codec ID : avc1
Codec ID/Info : Advanced Video Coding
Duration : 47 min 4 s
Bit rate : 1 564 kb/s
Width : 1 920 pixels
Height : 1 080 pixels
Display aspect ratio : 16: 9
Frame rate mode : Constant
Frame rate : 25.000 FPS
Color space : YUV
Chroma subsampling : 4: 2: 0
Bit depth : 8 bits
Scan type : Progressive
Bits/(Pixel*Frame) : 0.024
Stream size : 425 MiB (87%)
Writing library : x264 core 155 r2901 7d0ff22
Color range : Limited
Color primaries : BT.709
Transfer characteristics : BT.709
Matrix coefficients : BT.709
Codec configuration box : avcC
Audio
ID : 2
Format : AC-3
Format/Info : Audio Coding 3
Commercial name : Dolby Digital
Codec ID : ac-3
Duration : 47 min 4 s
Bit rate mode : Constant
Bit rate : 192 kb/s
Channel(s) : 2 channels
Channel layout : L R
Sampling rate : 48.0 kHz
Frame rate : 31.250 FPS (1536 SPF)
Bit depth : 16 bits
Compression mode : Lossy
Stream size : 64.6 MiB (13%)
Service kind : Complete Main
Default : Yes
Alternate group : 1
Скриншоты:


Все одноименные релизы в Клубе
Время раздачи: 24/7 (до появления первых 3-5 скачавших)

Другие торренты по теме:

  • Тайна последней главы (2019) WEB-DLRip (сезон 1, серии 1-4 из 4)
  • Тайна последней главы (2019) SATRip [H.264] (сезон 1, серии 1-4 из 4)

  • Посетители, находящиеся в группе Гости, не могут оставлять комментарии в данной новости.