Подписывайся на наш канал в Telegram https://t.me/torrentok и получи доступ к торрентам без ограничений!

Смешарики. Новый сезон (2020) WEB-DLRip [H.264] [MP4|1920x1080] торрент скачать бесплатно

Смешарики. Новый сезон (2020) WEB-DLRip [H.264] [MP4|1920x1080]Производство: Россия
Жанр: Мультфильм, детский
Режиссер: Денис Чернов, Алексей Горбунов, Александра Аверьянова
Актеры: Вадим Бочанов, Антон Виноградов, Сергей Мардарь, Владимир Постников, Светлана Письмиченко, Михаил Черняк, Владимир Маслаков, Максим Сергеев, Игорь Яковель, Денис Чернов

Описание

Истории о дружбе и приключениях обаятельных круглых героев. Весёлые и музыкальные, неожиданные и мечтательные, домашние и авантюрные. Целый мир в одной уютной ромашковой долине.

Возраст: 0+ (для любой зрительской аудитории)
Дата российской премьеры: 18 мая 2020
Продолжительность: ~00: 06: 00 серия
Качество видео: WEB-DLRip
Перевод: Оне требуется (русский)
Субтитры: Отсутствуют
Видео: AVC/H.264, 1920x1080, ~6000 Kbps
Аудио: AAC, 2 ch, 320 Kbps
Общее
Полное имя : F: ВидеоСмешарикиСмешарики. 3 сезон (2020). 1080p1 Серия. Природное свойство.mp4
Формат : MPEG-4
Профиль формата : Base Media/Version 2
Идентификатор кодека : mp42 (isom/iso2/avc1/mp41)
Размер файла : 301 Мбайт
Продолжительность : 6 м. 39 с.
Общий поток : 6318 Кбит/сек
Дата кодирования : UTC 2020-05-28 22: 25: 30
Дата пометки : UTC 2020-05-28 22: 25: 30
Программа кодирования : HandBrake 1.3.1 2020010400
Обложка : Yes
Видео
Идентификатор : 1
Формат : AVC
Формат/Информация : Advanced Video Codec
Профиль формата : [email protected]
Настройки формата : CABAC/4 Ref Frames
Параметр CABAC формата : Да
Параметр RefFrames формата : 4 кадра
Идентификатор кодека : avc1
Идентификатор кодека/Информация : Advanced Video Coding
Продолжительность : 6 м. 39 с.
Битрейт : 6000 Кбит/сек
Ширина : 1920 пикселей
Высота : 1080 пикселей
Соотношение сторон : 16: 9
Режим частоты кадров : Постоянный
Частота кадров : 30, 000 кадров/сек
Цветовое пространство : YUV
Субдискретизация насыщенности : 4: 2: 0
Битовая глубина : 8 бит
Тип развёртки : Прогрессивная
Бит/(Пиксели*Кадры) : 0.096
Размер потока : 284 Мбайт (94%)
Библиотека кодирования : x264 core 157 r2935 545de2f
Настройки программы : cabac=1/ref=2/deblock=1: 0: 0/analyse=0x1: 0x111/me=hex/subme=6/psy=1/psy_rd=1.00: 0.00/mixed_ref=1/me_range=16/chroma_me=1/trellis=1/8x8dct=0/cqm=0/deadzone=21, 11/fast_pskip=1/chroma_qp_offset=-2/threads=6/lookahead_threads=1/sliced_threads=0/nr=0/decimate=1/interlaced=0/bluray_compat=0/constrained_intra=0/bframes=3/b_pyramid=2/b_adapt=1/b_bias=0/direct=1/weightb=1/open_gop=0/weightp=1/keyint=300/keyint_min=30/scenecut=40/intra_refresh=0/rc_lookahead=30/rc=2pass/mbtree=1/bitrate=6000/ratetol=1.0/qcomp=0.60/qpmin=0/qpmax=69/qpstep=4/cplxblur=20.0/qblur=0.5/vbv_maxrate=20000/vbv_bufsize=25000/nal_hrd=none/filler=0/ip_ratio=1.40/aq=1: 1.00
Дата кодирования : UTC 2020-05-28 22: 25: 30
Дата пометки : UTC 2020-05-28 22: 25: 30
Цветовой диапазон : Limited
Основные цвета : BT.709
Характеристики трансфера : BT.709
Коэффициенты матрицы : BT.709
mdhd_Duration : 399067
Codec configuration box : avcC
Аудио
Идентификатор : 2
Формат : AAC LC
Формат/Информация : Advanced Audio Codec Low Complexity
Идентификатор кодека : mp4a-40-2
Продолжительность : 6 м. 39 с.
Вид битрейта : Постоянный
Битрейт : 321 Кбит/сек
Каналы : 2 канала
ChannelLayout : L R
Частота : 48, 0 КГц
Частота кадров : 46, 875 кадров/сек (1024 SPF)
Метод сжатия : С потерями
Размер потока : 15, 3 Мбайт (5%)
Заголовок : Stereo
Язык : English
Default : Да
AlternateGroup/String : 1
Дата кодирования : UTC 2020-05-28 22: 25: 30
Дата пометки : UTC 2020-05-28 22: 25: 30

Другие торренты по теме:

  • Смешарики. Новый сезон (2020) WEB-DLRip [H.264 / 720p-LQ] (сезон 1, серии 1-4 из 52) [Обновляемая]

  • Посетители, находящиеся в группе Гости, не могут оставлять комментарии в данной новости.