Подписывайся на наш канал в Telegram https://t.me/torrentok и получи доступ к торрентам без ограничений!

Он везёт свой грузовик (2019) WEBRip [H.264] [MP4|1444x1080] торрент скачать бесплатно

Он везёт свой грузовик (2019) WEBRip [H.264] [MP4|1444x1080]Производство: Россия/Moscow Film School
Жанр: Короткометражный, драма
Режиссер: Кирилл Проскурин
Актеры: Георгий Тадзетаев, Дмитрий Муляр

Описание

Восьмилетний Леша прячется от старших ребят в заброшенном здании, где натыкается на игрушечный грузовик, запертый за решеткой. Леша решает его достать.

Возраст: 12+ (зрителям, достигшим 12 лет)
Продолжительность: 00: 24: 37
Качество видео: WEBRip
Перевод: Не требуется (русский)
Субтитры: Отсутствуют
Видео: AVC/H.264, 1444x1080 (4: 3), ~1642 Kbps
Аудио: AAC, 2 ch, 128 Kbps
Общее
Полное имя : G: Он везет свой грузовик (2019).mp4
Формат : MPEG-4
Профиль формата : Base Media
Идентификатор кодека : isom (isom/iso2/avc1/mp41)
Размер файла : 312 Мбайт
Продолжительность : 24 м. 37 с.
Общий поток : 1 773 Кбит/сек
Программа кодирования : Lavf58.20.100
Видео
Идентификатор : 1
Формат : AVC
Формат/Информация : Advanced Video Codec
Профиль формата : [email protected]
Настройки формата : CABAC/3 Ref Frames
Параметр CABAC формата : Да
Параметр RefFrames формата : 3 кадра
Идентификатор кодека : avc1
Идентификатор кодека/Информация : Advanced Video Coding
Продолжительность : 24 м. 37 с.
Битрейт : 1 642 Кбит/сек
Ширина : 1 444 пикселя
Высота : 1 080 пикселей
Соотношение сторон : 4: 3
Режим частоты кадров : Постоянный
Частота кадров : 24, 000 кадра/сек
Цветовое пространство : YUV
Субдискретизация насыщенности : 4: 2: 0
Битовая глубина : 8 бит
Тип развёртки : Прогрессивная
Бит/(Пиксели*Кадры) : 0.044
Размер потока : 289 Мбайт (93%)
Библиотека кодирования : x264 core 155 r2901 7d0ff22
Цветовой диапазон : Limited
Основные цвета : BT.709
Характеристики трансфера : BT.709
Коэффициенты матрицы : BT.709
Codec configuration box : avcC
Аудио
Идентификатор : 2
Формат : AAC LC
Формат/Информация : Advanced Audio Codec Low Complexity
Идентификатор кодека : mp4a-40-2
Продолжительность : 24 м. 37 с.
Вид битрейта : Постоянный
Битрейт : 128 Кбит/сек
Каналы : 2 канала
Channel layout : L R
Частота : 44, 1 КГц
Частота кадров : 43, 066 кадра/сек (1024 SPF)
Метод сжатия : С потерями
Размер потока : 22, 5 Мбайт (7%)
Default : Да
Alternate group : 1

Другие торренты по теме:

  • Везёт же людям! (2014) HDTVRip
  • Олег Гадецкий | Лучшие психологические методики, или Что делать, когда не везёт (2016) [FB2]
  • Владислав Южный | S-T-I-K-S. Новичкам везёт (2019) [MP3]

  • Посетители, находящиеся в группе Гости, не могут оставлять комментарии в данной новости.