Подписывайся на наш канал в Telegram https://t.me/torrentok и получи доступ к торрентам без ограничений!

Белое солнце пустыни (1969) WEBRip [H.264] [MP4|1476x1080] торрент скачать бесплатно

Белое солнце пустыни (1969) WEBRip [H.264] [MP4|1476x1080]Производство: СССР/Мосфильм, Ленфильм
Жанр: Боевик, драма, мелодрама, комедия, приключения, военный
Режиссер: Владимир Мотыль
Актеры: Анатолий Кузнецов, Спартак Мишулин, Кахи Кавсадзе, Павел Луспекаев, Раиса Куркина, Татьяна Федотова, Николай Годовиков, Муса Дудаев, Николай Бадьев, Владимир Кадочников

Описание

Бесконечная пустыня. Боец Сухов, прикуривающий от динамитной шашки, нескладный Петруха с вечно заклинивающей трехлинейкой, обаятельный Верещагин с надоевшей черной икрой и знаменитыми песнями-балладами, ловкий Саид, злодей Абдулла со своей бандой, любознательная Гульчатай, играющая с черепахой.

Возраст: 16+ (зрителям, достигшим 16 лет)
Продолжительность: 01: 20: 06
Качество видео: WEBRip
Перевод: Не требуется (русский)
Субтитры: Отсутствуют
Видео: AVC/H.264, 1476x1080 (4: 3), ~4690 Kbps
Аудио: AAC, 2 ch, 228 Kbps
Общее
Полное имя : G: Белое солнце пустыни (1969).mp4
Формат : MPEG-4
Профиль формата : Base Media
Идентификатор кодека : isom (isom/iso2/avc1/mp41)
Размер файла : 2, 75 Гбайт
Продолжительность : 1 ч. 20 м.
Общий поток : 4 922 Кбит/сек
Программа кодирования : Lavf58.20.100
Видео
Идентификатор : 1
Формат : AVC
Формат/Информация : Advanced Video Codec
Профиль формата : [email protected]
Настройки формата : CABAC/5 Ref Frames
Параметр CABAC формата : Да
Параметр RefFrames формата : 5 кадров
Идентификатор кодека : avc1
Идентификатор кодека/Информация : Advanced Video Coding
Продолжительность : 1 ч. 20 м.
Битрейт : 4 690 Кбит/сек
Номинальный битрейт : 5 000 Кбит/сек
Ширина : 1 476 пикселей
Высота : 1 080 пикселей
Соотношение сторон : 4: 3
Режим частоты кадров : Переменный
Частота кадров : 24, 605 кадров/сек
Минимальная частота кадров : 0, 124 кадр/сек
Максимальная частота кадров : 25, 000 кадров/сек
Цветовое пространство : YUV
Субдискретизация насыщенности : 4: 2: 0
Битовая глубина : 8 бит
Тип развёртки : Прогрессивная
Бит/(Пиксели*Кадры) : 0.120
Размер потока : 2, 62 Гбайт (95%)
Библиотека кодирования : x264 core 148 r2721 72d53ab
Настройки программы : cabac=1/ref=5/deblock=1: 0: 0/analyse=0x3: 0x133/me=umh/subme=10/psy=1/psy_rd=1.00: 0.00/mixed_ref=1/me_range=24/chroma_me=1/trellis=2/8x8dct=1/cqm=0/deadzone=21, 11/fast_pskip=1/chroma_qp_offset=-2/threads=34/lookahead_threads=5/sliced_threads=0/nr=0/decimate=1/interlaced=0/bluray_compat=0/constrained_intra=0/bframes=8/b_pyramid=2/b_adapt=2/b_bias=0/direct=3/weightb=1/open_gop=0/weightp=2/keyint=100/keyint_min=50/scenecut=40/intra_refresh=0/rc_lookahead=60/rc=2pass/mbtree=1/bitrate=5000/ratetol=1.0/qcomp=0.60/qpmin=0/qpmax=69/qpstep=4/cplxblur=20.0/qblur=0.5/vbv_maxrate=5500/vbv_bufsize=2500/nal_hrd=none/filler=0/ip_ratio=1.40/aq=1: 1.00
Codec configuration box : avcC
Аудио
Идентификатор : 2
Формат : AAC LC
Формат/Информация : Advanced Audio Codec Low Complexity
Идентификатор кодека : mp4a-40-2
Продолжительность : 1 ч. 20 м.
Вид битрейта : Постоянный
Битрейт : 228 Кбит/сек
Каналы : 2 канала
Channel layout : L R
Частота : 48, 0 КГц
Частота кадров : 46, 875 кадров/сек (1024 SPF)
Метод сжатия : С потерями
Размер потока : 131 Мбайт (5%)
Default : Да
Alternate group : 1
Скриншоты:


Все одноименные релизы в Клубе
Время раздачи: 24/7 (круглосуточно) (до появления первых 3-5 скачавших)

Другие торренты по теме:

  • Белое солнце пустыни (1969) BDRip [1080p] [hand made 60fps]
  • Белое солнце пустыни (1969) BDRip [H.264] скачать через торрент бесплатно
  • Белое солнце пустыни (1969) HDRip [H.264] [MP4|640х464] скачать через торрент бесплатно
  • Белое солнце пустыни. От заката до восхода (13.02.2016) HDTV [H.264 / 1080i-LQ]
  • Белое солнце пустыни. От заката до восхода (2016) HDTVRip
  • Василий Ермаков | Павел Луспекаев. Белое солнце пустыни (2012) [FB2]
  • Белое солнце пустыни (1969) HDTV [H.264 / 720p]
  • Белое солнце пустыни (1969) BDRip [H.264 / 1080p]

  • Посетители, находящиеся в группе Гости, не могут оставлять комментарии в данной новости.