Подписывайся на наш канал в Telegram https://t.me/torrentok и получи доступ к торрентам без ограничений!

Следствие вели... (14.06.2020) "Бесценный мужчина" WEBRip [H.264] [MP4|1920x1080] торрент скачать бесплатно

Следствие вели... (14.06.2020) Бесценный мужчина WEBRip [H.264] [MP4|1920x1080]Производство: Россия | Телекомпания НТВ
Жанр: Документальный, криминал, расследование
Ведущий: Леонид Каневский

Описание

1969 год, в Калинине убита молодая красивая женщина. Сыщики выясняют: она совсем недавно приехала к мужу-военному из Минска. Под подозрением оказываются сразу несколько человек, в том числе и сам супруг. Но вскоре следствию становится известно, что у женщины был загадочный поклонник, который ее преследовал. И это далеко не последняя тайна в этом необычном деле.

Возраст: 16+ (зрителям, достигшим 16 лет)
Дата российской премьеры: 14 июня 2020
Продолжительность: 00: 44: 10
Качество видео: WEBRip
Субтитры: Отсутствуют
Видео: AVC/H.264, 1920x1080, ~3550 kbps
Аудио: AAC, 2 ch, 128 kbps - русский
General
Complete name : D: 4_TRANZITВидеоСледствие вели..._Бесценный мужчина_14_06_2020_1080p.mp4
Format : MPEG-4
Format profile : Base Media
Codec ID : isom (isom/iso2/avc1/mp41)
File size : 1.14 GiB
Duration : 44 min 10 s
Overall bit rate : 3 683 kb/s
Writing application : Lavf58.20.100
Video
ID : 1
Format : AVC
Format/Info : Advanced Video Codec
Format profile : [email protected]
Format settings : CABAC/3 Ref Frames
Format settings, CABAC : Yes
Format settings, ReFrames : 3 frames
Codec ID : avc1
Codec ID/Info : Advanced Video Coding
Duration : 44 min 10 s
Bit rate : 3 549 kb/s
Width : 1 920 pixels
Height : 1 080 pixels
Display aspect ratio : 16: 9
Frame rate mode : Constant
Frame rate : 25.000 FPS
Color space : YUV
Chroma subsampling : 4: 2: 0
Bit depth : 8 bits
Scan type : Progressive
Bits/(Pixel*Frame) : 0.068
Stream size : 1.09 GiB (96%)
Title : ISO Media file produced by Google Inc.
Color range : Limited
Color primaries : BT.709
Transfer characteristics : BT.709
Matrix coefficients : BT.709
Codec configuration box : avcC
Audio
ID : 2
Format : AAC LC
Format/Info : Advanced Audio Codec Low Complexity
Codec ID : mp4a-40-2
Duration : 44 min 10 s
Bit rate mode : Constant
Bit rate : 128 kb/s
Channel(s) : 2 channels
Channel layout : L R
Sampling rate : 44.1 kHz
Frame rate : 43.066 FPS (1024 SPF)
Compression mode : Lossy
Stream size : 40.4 MiB (3%)
Title : ISO Media file produced by Google Inc.
Language : English
Default : Yes
Alternate group : 1
Скриншоты:


Все одноименные релизы в Клубе
Время раздачи: 24/7 (до появления первых 3-5 скачавших)

Другие торренты по теме:

  • Следствие вели... (2020) WEBRip (выпуски 466-480) (обновляемая)
  • Следствие вели... с Леонидом Каневским. Проклятый клад. Выпуск 278 (28.09.2014) SATRip
  • Следствие вели... с Леонидом Каневским. Убийство из милосердия. Выпуск 279 (11.10.2014) SATRip скачать через торрент бесплатно
  • Следствие вели... с Леонидом Каневским. Призрак на колесах. Выпуск 280 (18.10.2014) SATRip скачать через торрент бесплатно
  • Следствие вели... с Леонидом Каневским. Бумеранг. Выпуск 281 (25.10.2014) SATRip
  • Следствие вели... с Леонидом Каневским. Хозяин города. Выпуск 282 (01.11.2014) SATRip скачать через торрент бесплатно
  • Следствие вели... с Леонидом Каневским. Правдоруб. Выпуск 283 (08.11.2014) SATRip скачать через торрент бесплатно
  • Следствие вели... с Леонидом Каневским. Опасный попутчик. Выпуск 284 (15.11.2014) SATRip

  • Посетители, находящиеся в группе Гости, не могут оставлять комментарии в данной новости.