Подписывайся на наш канал в Telegram https://t.me/torrentok и получи доступ к торрентам без ограничений!

Герой по вызову (2019) WEBRip [H.264] (сезон 1, серии 1-2 из 10) [MP4|1920x1080] (обновляемая) торрент скачать бесплатно

Герой по вызову (2019) WEBRip [H.264] (сезон 1, серии 1-2 из 10) [MP4|1920x1080] (обновляемая)Производство: Россия | ООО РИМ-Продакшн
Жанр: Детектив, комедия
Режиссер: Анна Зайцева
Актеры: Евгений Миллер, Кристина Асмус, Николай Клямчук, Михаил Евланов, Марина Калецкая, Владимир Виноградов, Константин Тополага, Юрий Николаенко, Ирина Вербицкая, Константин Соловьев, Олег Тактаров

Описание

Иван Лутошин — врач-невролог по профессии и неудачник по жизни. Он узнает, что у него неоперабельная опухоль мозга и ему осталось жить полгода. Медик уверен, что самое лучшее — это самому побыстрее уйти из жизни. Напившись, он выходит на скоростную трассу перед подъезжающим авто, но водитель успевает вырулить с дороги, и Лутошин остается жив. За рулем автомобиля — оперуполномоченный полиции Туманов. Узнав, что к чему, он предлагает неврологу поучаствовать в смертельно опасных операциях стражей порядка. Мол, если убьют, то хотя бы не напрасно.

Дата российской премьеры: 15 июня 2020
Продолжительность: ~00: 47: 00 серия
Качество видео: WEBRip
Субтитры: Отсутствуют
Видео: AVC/H.264, 1920x1080, ~1700 kbps
Аудио: AAC, 2 ch, 128 kbps - русский
General
Complete name : Geroy_po_vyzovu_2019_1080p_mp4Герой_по_вызову_2019_1080p_01.mp4
Format : MPEG-4
Format profile : Base Media
Codec ID : isom (isom/iso2/avc1/mp41)
File size : 540 MiB
Duration : 47 min 49 s
Overall bit rate : 1 832 kb/s
Writing application : Lavf58.20.100
Video
ID : 1
Format : AVC
Format/Info : Advanced Video Codec
Format profile : [email protected]
Format settings : CABAC/3 Ref Frames
Format settings, CABAC : Yes
Format settings, ReFrames : 3 frames
Codec ID : avc1
Codec ID/Info : Advanced Video Coding
Duration : 47 min 48 s
Bit rate : 1 704 kb/s
Width : 1 920 pixels
Height : 1 080 pixels
Display aspect ratio : 16: 9
Frame rate mode : Constant
Frame rate : 25.000 FPS
Color space : YUV
Chroma subsampling : 4: 2: 0
Bit depth : 8 bits
Scan type : Progressive
Bits/(Pixel*Frame) : 0.028
Stream size : 494 MiB (91%)
Title : ISO Media file produced by Google Inc.
Writing library : x264 core 155 r2901 7d0ff22
Color range : Limited
Color primaries : BT.709
Transfer characteristics : BT.709
Matrix coefficients : BT.709
Codec configuration box : avcC
Audio
ID : 2
Format : AAC LC
Format/Info : Advanced Audio Codec Low Complexity
Codec ID : mp4a-40-2
Duration : 47 min 49 s
Bit rate mode : Constant
Bit rate : 128 kb/s
Channel(s) : 2 channels
Channel layout : L R
Sampling rate : 44.1 kHz
Frame rate : 43.066 FPS (1024 SPF)
Compression mode : Lossy
Stream size : 43.8 MiB (8%)
Title : ISO Media file produced by Google Inc.
Language : English
Default : Yes
Alternate group : 1
Скриншоты:


Все одноименные релизы в Клубе
Время раздачи: 24/7 (до появления первых 3-5 скачавших)

Другие торренты по теме:

  • Последний Герой (американская версия) (сезон 29, выпуски 0-1 из ) / Survivor: San Juan del Sur — Blood vs. Water (Season 29) (2014) HDTV [EN] [обновляемая]
  • Yuuki Yuuna wa Yuusha de Aru / Yuuki Yuna is a Hero / Герой Юки Юна [2014, TV, 1 из >12] HDTV 720p Hi10p raw
  • Yuuki Yuuna wa Yuusha de Aru / Yuuki Yuna is a Hero / Герой Юки Юна (2014, TV, 3 из 12) HDTV 720p rus скачать через торрент бесплатно
  • Герой цветного города / The Hero of Color City (2014) BDRip [720p] [EN / EN Sub] скачать через торрент бесплатно
  • Yuuki Yuuna wa Yuusha de Aru / Yuuki Yuna is a Hero / Герой Юки Юна [2014, TV, 2 из 12] BDrip 1080p Hi10p raw скачать через торрент бесплатно
  • Николай Симонов. Герой не нашего времени (2011) SATRip
  • Кино - Последний герой (1989) / 1993, Moroz Records / [FLAC|Lossless]<Рок>
  • Последний Герой (американская версия) / Survivor: Worlds Apart (сезон 30, выпуск 1 из ) 2015 HDTV [H.264 / 720p][EN] скачать через торрент бесплатно

  • Посетители, находящиеся в группе Гости, не могут оставлять комментарии в данной новости.