Подписывайся на наш канал в Telegram https://t.me/torrentok и получи доступ к торрентам без ограничений!

Дочь посла / Sefirin Kizi (2019) WEB-DLRip [H.264] (сезон 1, серии 1-16 из 17) SesDizi [MP4|1920x1080] (обновляемая) торрент скачать бесплатно

Дочь посла / Sefirin Kizi (2019) WEB-DLRip [H.264] (сезон 1, серии 1-16 из 17) SesDizi [MP4|1920x1080] (обновляемая)Производство: Турция/O3 Turkey Medya, NGM Media
Жанр: Драма
Режиссер: Эмре Кабакусак
Актеры: Энгин Акюрек, Неслихан Атагюль, Ураз Каигилароглу, Erdal Küçükkömürcü, Эрхан Алпай, Гонджа Джиласун, Догукан Полат, Tulin Yazkan, Эдип Тепели, Cemre Öktem

Описание

Драматическая история двух влюбленных, на пути которых будут стоять сложнейшие преграды…
Санджар и Нарэ безумно влюбляются друг в друга, но семьи против их отношений. Молодым людям не остается ничего другого как пожениться тайно. Однако в свадебную ночь Нарэ, словно испаряется. Санджар думает, что она его предала, ушла к отцу. Однако все не так просто Нарэ покинула любимого ради его же блага. Спустя году она вновь появляется в жизни Санджара вместе с дочерью...

Продолжительность: ~02: 37: 00 серия
Качество видео: WEB-DLRip
Перевод: Двуголосый любительский (SesDizi)
Субтитры: Отсутствуют
Видео: AVC/H.264, 1920x1080, ~1583 kbps
Аудио: AAC, 2 ch, ~96-160 kbps
General
Complete name : J: Doch.Posla.s01.WEB-DLRip1080p.SesDiziDoch.Posla.s01.e05.WEB-DLRip1080p.SesDizi.mp4
Format : MPEG-4
Format profile : Base Media
Codec ID : isom (isom/avc1/iso6)
File size : 1.86 GiB
Duration : 2 h 32 min
Overall bit rate mode : Variable
Overall bit rate : 1 747 kb/s
Encoded date : UTC 2020-01-28 14: 15: 26
Tagged date : UTC 2020-01-28 14: 15: 26
Writing application : My MP4Box GUI 0.6.0.6 http://my-mp4box-gui.zymichost.com
Video
ID : 1
Format : AVC
Format/Info : Advanced Video Codec
Format profile : [email protected]
Format settings : CABAC/3 Ref Frames
Format settings, CABAC : Yes
Format settings, Reference fra : 3 frames
Codec ID : avc1
Codec ID/Info : Advanced Video Coding
Duration : 2 h 32 min
Bit rate : 1 583 kb/s
Maximum bit rate : 10.1 Mb/s
Width : 1 918 pixels
Height : 1 080 pixels
Display aspect ratio : 16: 9
Frame rate mode : Constant
Frame rate : 25.000 FPS
Color space : YUV
Chroma subsampling : 4: 2: 0
Bit depth : 8 bits
Scan type : Progressive
Bits/(Pixel*Frame) : 0.031
Stream size : 1.68 GiB (91%)
Title : 5_track1.h264
Writing library : x264 core 155 r2901 7d0ff22
Encoded date : UTC 2020-01-28 14: 15: 26
Tagged date : UTC 2020-01-28 14: 21: 11
Color range : Limited
Color primaries : BT.709
Transfer characteristics : BT.709
Matrix coefficients : BT.709
Codec configuration box : avcC
Audio
ID : 2
Format : AAC LC
Format/Info : Advanced Audio Codec Low Complexity
Codec ID : mp4a-40-2
Duration : 2 h 32 min
Bit rate mode : Variable
Bit rate : 160 kb/s
Maximum bit rate : 168 kb/s
Channel(s) : 2 channels
Channel layout : L R
Sampling rate : 44.1 kHz
Frame rate : 43.066 FPS (1024 SPF)
Compression mode : Lossy
Stream size : 174 MiB (9%)
Title : Doch.Posla.s01.e05.2020.L2.WEBRip1080p_track2.aac
Encoded date : UTC 2020-01-28 14: 20: 08
Tagged date : UTC 2020-01-28 14: 21: 11
Скриншоты:


Все одноименные релизы в Клубе
Время раздачи: с 11: 00 до 3: 00 (до появления первых 3-5 скачавших)

Другие торренты по теме:

  • Sanzoku no Musume Ronja | Дочь разбойника, Ронья [2014, TV, 2 из 26] HDTV 720p Hi10P raw
  • Оливер Пётч | Дочь палача и король нищих (2014) [FB2]
  • Оливер Пётч | Цикл «Дочь палача» [4 книги] (2014-2015) [FB2] скачать через торрент бесплатно
  • Дочь Монро и Кеннеди - Вне игры (2015) [MP3|320 кб / с]<Rock> скачать через торрент бесплатно
  • Смерть по правилам / Донато и дочь / Donato and Daughter (1993) DVDRip [H.264] [AVO] скачать через торрент бесплатно
  • Старшая дочь (2015) WEB-DLRip (серии 1-3 из 12) (обновляемая) скачать через торрент бесплатно
  • Старшая дочь (2015) WEB-DLRip [H.264 / 720p-LQ] (серии 1-8 из 12) (обновляемая) скачать через торрент бесплатно
  • Старшая дочь (2015) WEB-DLRip [H.264 / 1080p-LQ] (серии 1-8 из 12) (обновляемая) скачать через торрент бесплатно

  • Посетители, находящиеся в группе Гости, не могут оставлять комментарии в данной новости.