Подписывайся на наш канал в Telegram https://t.me/torrentok и получи доступ к торрентам без ограничений!

Шиммер и Шайн / Shimmer and Shine (2015) WEBRip [H.264] (сезон 1-2, серия 1-40 из 40) [MP4|1280x720] торрент скачать бесплатно

Шиммер и Шайн / Shimmer and Shine (2015) WEBRip [H.264] (сезон 1-2, серия 1-40 из 40) [MP4|1280x720]Производство: США
Жанр: Детский, Приключения
Режиссер: Дэвид Нотт, Энрико Вилбар Сантана, Карин-Энн Андерсон

Описание

Джинны или исполнители желаний — это мечта любого человека, независимо от возраста или пола. Только исполняется эта мечта совершенно по-разному. Вот девочке Лие повезло заполучить не одного, а двух джиннов с огромным магическим потенциалом. Это сестры-близнецы Шиммер и Шайн. Но джинны не всегда хорошо понимают желания своей юной повелительницы, из-за чего та не раз и не два оказывается в достаточно неловких, а порою просто забавных ситуациях.
Но близняшки так поступают не со зла, а просто от незнания современных реалий. От долгого сидения в лампе мудрость не прирастает. Но Лия никогда на них не обижается, ведь они же еще ее хорошие друзья. А с друзьями из-за пустяковых происшествий никто не ссорится, особенно, если эти друзья — волшебные.

Возраст: 0+ (для любой зрительской аудитории)
Рейтинг MPAA: G (нет возрастных ограничений)
Продолжительность: ~00: 22: 00 серия
Качество видео: WEBRip
Перевод: Дублированный
Субтитры: отсутствуют
Видео: AVC/H.264, 1280x720, ~2569 kbps
Аудио: AAC, 2 ch, 256 kb/s - русский
General
Complete name :
Format : MPEG-4
Format profile : Base Media
Codec ID : isom (isom/iso2/avc1/mp41)
File size : 436 MiB
Duration : 21 min 36 s
Overall bit rate : 2 822 kb/s
Writing application : Lavf55.33.100
Video
ID : 1
Format : AVC
Format/Info : Advanced Video Codec
Format profile : [email protected]
Format settings : CABAC/4 Ref Frames
Format settings, CABAC : Yes
Format settings, Reference : 4 frames
Codec ID : avc1
Codec ID/Info : Advanced Video Coding
Duration : 21 min 36 s
Bit rate : 2 569 kb/s
Width : 1 280 pixels
Height : 720 pixels
Display aspect ratio : 16: 9
Frame rate mode : Constant
Frame rate : 25.000 FPS
Color space : YUV
Chroma subsampling : 4: 2: 0
Bit depth : 8 bits
Scan type : Progressive
Bits/(Pixel*Frame) : 0.112
Stream size : 396 MiB (91%)
Writing library : x264 core 142
Encoding settings : cabac=1/ref=3/deblock=1: 0: 0/analyse=0x3: 0x113/me=hex/subme=7/psy=1/psy_rd=1.00: 0.00/mixed_ref=1/me_range=16/chroma_me=1/trellis=1/8x8dct=1/cqm=0/deadzone=21, 11/fast_pskip=1/chroma_qp_offset=-2/threads=108/lookahead_threads=5/sliced_threads=0/nr=0/decimate=1/interlaced=0/bluray_compat=0/constrained_intra=0/bframes=6/b_pyramid=2/b_adapt=1/b_bias=0/direct=1/weightb=1/open_gop=0/weightp=2/keyint=50/keyint_min=26/scenecut=0/intra_refresh=0/rc_lookahead=40/rc=2pass/mbtree=1/bitrate=2569/ratetol=1.0/qcomp=0.60/qpmin=0/qpmax=69/qpstep=4/cplxblur=20.0/qblur=0.5/vbv_maxrate=3854/vbv_bufsize=10279/nal_hrd=none/filler=0/ip_ratio=1.40/aq=1: 1.00
Tagged date : UTC 2018-01-12 07: 47: 23
Codec configuration box : avcC
Audio
ID : 2
Format : AAC LC
Format/Info : Advanced Audio Codec Low Complexity
Codec ID : mp4a-40-2
Duration : 21 min 36 s
Duration_LastFrame : 43 ms
Bit rate mode : Constant
Bit rate : 256 kb/s
Channel(s) : 2 channels
Channel layout : L R
Sampling rate : 48.0 kHz
Frame rate : 46.875 FPS (1024 SPF)
Compression mode : Lossy
Stream size : 39.6 MiB (9%)
Default : Yes
Alternate group : 1
Tagged date : UTC 2018-01-12 07: 47: 23

1 сезон:
1 Серия. Мои тайные джинны, Часть 1
2 Серия. Мои тайные джинны, Часть 2
3 Серия. Слаще нет
4 Серия. Динозаврость
5 Серия. Домик на дереве сломан
6 Серия. Какое свинство!
7 Серия. Джины, на борт!
8 Серия. Свет! Камера! Джины!
9 Серия. Балет на заднем дворе
10 Серия. Абракадабра!
11 Серия. Маленькие джины Санты
12 Серия. Космическое кораблекрушение
13 Серия. Хэллуин в стиле джинн!
14 Серия. Пижамная вечеринка
15 Серия. Я в игре
16 Серия. Боулинг
17 Серия. Скейт-ошибка-на-лице-улыбка
18 Серия. Кукольный домик-мечта
19 Серия. Козлик в бегах
20 Серия. С джинно-годовщиной
2 сезон:
1 Серия. Добро пожаловать на водопады Зарамей
2 Серия. В заточении/Зум Зарамэй
3 Серия. Блестящее спасение/Летающая мука
4 Серия. Суматоха у русалок/Туда, где снег
5 Серия. Ночевка под звездами/Погоня за диким ковром
6 Серия. Пропажа нашлась/Замороженные водопады
7 Серия. Ожерелье/Заколдованные
8 Серия. Драконья ветрянка/Молния в бутылке
9 Серия. Размер Наблюдателя/Бросок Зоомикорна
10 Серия. Двойная проблема/Занни Зифлон
11 Серия. Опустевший вулкан/Джины за уборкой
12 Серия. Теперь ее видно/Необузданный талант
13 Серия. Хрустальная королева/Капля
14 Серия. Комната для питомцев/Бум Зара-Мам
15 Серия. Ледяное веселье/Обучение Зиты
16 Серия. Маскарад Шарад/Тихое Лечение
17 Серия. Наука зелий/Будь здоров
18 Серия. Джин/Пират новая
19 Серия. Хитрец и сокровища/История с пирогами
20 Серия. Переполох в джунглях/Таинственная башня
Скриншоты:


Все одноименные релизы в Клубе
Время раздачи: Пн-Вс с 19: 00 до 22: 00 (до появления первых 3-5 скачавших)

Другие торренты по теме:

  • Шиммер и Шайн / Shimmer and Shine (2015) WEB-DL [H.264 / 720p-LQ] (Сезон 1-2, 40 серий из 40) [UKR, EN]
  • Шиммер и Шайн / Shimmer and Shine (2015) DVDRip [H.264] (Сезон 2, Серии 1-16 из 20)

  • Посетители, находящиеся в группе Гости, не могут оставлять комментарии в данной новости.