Подписывайся на наш канал в Telegram https://t.me/torrentok и получи доступ к торрентам без ограничений!

На перекрестке радости и горя (2016) WEBRip [H.264] (серии 1-2 из 2) [MP4|1280x720] торрент скачать бесплатно

На перекрестке радости и горя (2016) WEBRip [H.264] (серии 1-2 из 2) [MP4|1280x720]Производство: Россия | Кинокомпания Русское
Жанр: Мелодрама
Режиссер: Владислав Николаев
Актеры: Марина Коняшкина, Кирилл Кяро, Иван Кокорин, Яна Крайнова, Ксения Щербакова, Анастасия Калашникова, Дмитрий Мазуров, Богдан Щукин, Анна Антонова, Александр Кильбург

Описание

Вера вынуждена переехать из Санкт-Петербурга в небольшой провинциальный город. Там она устраивается преподавателем литературы в местную школу. В первый же день у Веры разгорается конфликт с задиристой ученицей Дашей. Вера возмущена поведением девочки и не подозревает, что у нее серьезные проблемы в семье. Дома не дают покоя скандалы соседей. Но Вера терпеливо сносит неприятности, не заводит подруг, общается только с Зоей, своей однокурсницей, которая и позвала ее в этот город. У героини есть своя тайна – ее муж Степан в тюрьме. Но когда жизнь ее сталкивает с проблемами девочек Даши и Насти, она понимает, что не может жить, отгородившись от мира.

Возраст: 12+ (зрителям, достигшим 12 лет)
Продолжительность: 01: 36: 45+01: 31: 15
Качество видео: WEBRip
Субтитры: Отсутствуют
Видео: AVC/H.264, 1280x720, ~2570 kbps
Аудио: AAC, 2 ch, 256 kbps - русский
General
Complete name : На_перекрестке_радости_и_горя_2015_WEBRip_720p1.mp4
Format : MPEG-4
Format profile : Base Media
Codec ID : isom (isom/iso2/avc1/mp41)
File size : 1.91 GiB
Duration : 1 h 36 min
Overall bit rate : 2 822 kb/s
Writing application : Lavf58.20.100
Video
ID : 1
Format : AVC
Format/Info : Advanced Video Codec
Format profile : [email protected]
Format settings : CABAC/4 Ref Frames
Format settings, CABAC : Yes
Format settings, ReFrames : 4 frames
Codec ID : avc1
Codec ID/Info : Advanced Video Coding
Duration : 1 h 36 min
Bit rate : 2 569 kb/s
Width : 1 280 pixels
Height : 720 pixels
Display aspect ratio : 16: 9
Frame rate mode : Constant
Frame rate : 25.000 FPS
Color space : YUV
Chroma subsampling : 4: 2: 0
Bit depth : 8 bits
Scan type : Progressive
Bits/(Pixel*Frame) : 0.112
Stream size : 1.73 GiB (91%)
Writing library : x264 core 148
Encoding settings : cabac=1/ref=3/deblock=1: 0: 0/analyse=0x3: 0x113/me=hex/subme=7/psy=1/psy_rd=1.00: 0.00/mixed_ref=1/me_range=16/chroma_me=1/trellis=1/8x8dct=1/cqm=0/deadzone=21, 11/fast_pskip=1/chroma_qp_offset=-2/threads=22/lookahead_threads=3/sliced_threads=0/nr=0/decimate=1/interlaced=0/bluray_compat=0/constrained_intra=0/bframes=6/b_pyramid=2/b_adapt=1/b_bias=0/direct=1/weightb=1/open_gop=0/weightp=2/keyint=50/keyint_min=26/scenecut=0/intra_refresh=0/rc_lookahead=40/rc=2pass/mbtree=1/bitrate=2569/ratetol=1.0/qcomp=0.60/qpmin=0/qpmax=69/qpstep=4/cplxblur=20.0/qblur=0.5/vbv_maxrate=3854/vbv_bufsize=10279/nal_hrd=none/filler=0/ip_ratio=1.40/aq=1: 1.00
Tagged date : UTC 2019-09-15 11: 52: 44
Codec configuration box : avcC
Audio
ID : 2
Format : AAC LC
Format/Info : Advanced Audio Codec Low Complexity
Codec ID : mp4a-40-2
Duration : 1 h 36 min
Source duration : 1 h 36 min
Bit rate mode : Constant
Bit rate : 256 kb/s
Channel(s) : 2 channels
Channel layout : L R
Sampling rate : 48.0 kHz
Frame rate : 46.875 FPS (1024 SPF)
Compression mode : Lossy
Stream size : 177 MiB (9%)
Source stream size : 177 MiB (9%)
Language : English
Default : Yes
Alternate group : 1
Tagged date : UTC 2019-09-15 11: 52: 44
General
Complete name : На_перекрестке_радости_и_горя_2015_WEBRip_720p2.mp4
Format : MPEG-4
Format profile : Base Media
Codec ID : isom (isom/iso2/avc1/mp41)
File size : 1.80 GiB
Duration : 1 h 31 min
Overall bit rate : 2 818 kb/s
Writing application : Lavf58.20.100
Video
ID : 1
Format : AVC
Format/Info : Advanced Video Codec
Format profile : [email protected]
Format settings : CABAC/4 Ref Frames
Format settings, CABAC : Yes
Format settings, ReFrames : 4 frames
Codec ID : avc1
Codec ID/Info : Advanced Video Coding
Duration : 1 h 31 min
Bit rate : 2 569 kb/s
Width : 1 280 pixels
Height : 720 pixels
Display aspect ratio : 16: 9
Frame rate mode : Constant
Frame rate : 25.000 FPS
Color space : YUV
Chroma subsampling : 4: 2: 0
Bit depth : 8 bits
Scan type : Progressive
Bits/(Pixel*Frame) : 0.112
Stream size : 1.63 GiB (91%)
Writing library : x264 core 148
Encoding settings : cabac=1/ref=3/deblock=1: 0: 0/analyse=0x3: 0x113/me=hex/subme=7/psy=1/psy_rd=1.00: 0.00/mixed_ref=1/me_range=16/chroma_me=1/trellis=1/8x8dct=1/cqm=0/deadzone=21, 11/fast_pskip=1/chroma_qp_offset=-2/threads=22/lookahead_threads=3/sliced_threads=0/nr=0/decimate=1/interlaced=0/bluray_compat=0/constrained_intra=0/bframes=6/b_pyramid=2/b_adapt=1/b_bias=0/direct=1/weightb=1/open_gop=0/weightp=2/keyint=50/keyint_min=26/scenecut=0/intra_refresh=0/rc_lookahead=40/rc=2pass/mbtree=1/bitrate=2569/ratetol=1.0/qcomp=0.60/qpmin=0/qpmax=69/qpstep=4/cplxblur=20.0/qblur=0.5/vbv_maxrate=3854/vbv_bufsize=10279/nal_hrd=none/filler=0/ip_ratio=1.40/aq=1: 1.00
Tagged date : UTC 2019-09-16 20: 57: 54
Codec configuration box : avcC
Audio
ID : 2
Format : AAC LC
Format/Info : Advanced Audio Codec Low Complexity
Codec ID : mp4a-40-2
Duration : 1 h 31 min
Source duration : 1 h 31 min
Bit rate mode : Constant
Bit rate : 256 kb/s
Channel(s) : 2 channels
Channel layout : L R
Sampling rate : 48.0 kHz
Frame rate : 46.875 FPS (1024 SPF)
Compression mode : Lossy
Stream size : 167 MiB (9%)
Source stream size : 167 MiB (9%)
Language : English
Default : Yes
Alternate group : 1
Tagged date : UTC 2019-09-16 20: 57: 54
Скриншоты:


Все одноименные релизы в Клубе
Время раздачи: 24/7 (до появления первых 3-5 скачавших)

Другие торренты по теме:

  • Аптека на перекрестке (1988) TVRipскачать через торрент бесплатно
  • Ю. П. Гавриков, В. М. Калюжный | На перекрестке жизни: Молодежь в странах капитала (1970) [DJVU] скачать через торрент бесплатно
  • Бой на перекрестке (1982) DVB (серии 1-2 из 2)
  • Юрий Беспалов | Людмила Зыкина. На перекрестке наших встреч (2016) [FB2]
  • Мегрэ: Ночь на перекрестке / Maigret: Night at the Crossroads (2017) HDTVRip [MVO]
  • Бой на перекрестке (1982) DVDRip (серии 1-2 из 2)
  • Постовой на перекрестке / The Crossing Guard (1995) BDRip [H.264 / 1080p]

  • Посетители, находящиеся в группе Гости, не могут оставлять комментарии в данной новости.