Подписывайся на наш канал в Telegram https://t.me/torrentok и получи доступ к торрентам без ограничений!

Америкэн бой (1992) WEBRip [H.264] [MP4|1920x1080] торрент скачать бесплатно

Америкэн бой (1992) WEBRip [H.264] [MP4|1920x1080]Производство: Украина | Укртелефильм, Lybid, Univex
Жанр: Боевик, триллер, криминал
Режиссер: Борис Квашнев
Актеры: Александр Песков, Владимир Гостюхин, Олег Рогачев, Анатолий Хостикоев, Фелиция Адамс, Галина Мороз, Валерий Свищев, Артур Ли, Гия Лежава, Сергей Пономаренко

Описание

После афганского плена Николай Найденов, бывший детдомовец, попадает в США, устраивается на работу инструктором в один из спортивных клубов, женится и получает американское гражданство. Жизнь складывается как нельзя лучше. Через некоторое время он приезжает на свою бывшую родину к армейскому другу Сергею и узнает от его жены, что Сергей убит по заказу главарей одного из кланов местной мафии. На следующий день боевики, после зверских пыток, несколькими ударами в живот убивают и беременную жену Сергея…

Возраст: 16+ (зрителям, достигшим 16 лет)
Продолжительность: 01: 50: 34
Качество видео: WEBRip
Перевод: Не требуется (русский)
Субтитры: Отсутствуют
Видео: AVC/H.264, 1920x1080, ~1735 kbps
Аудио: AAC, 2 ch, 128 kbps - русский
General
Complete name : D: Америкэн_бой_WEBRip_1080p.mp4
Format : MPEG-4
Format profile : Base Media
Codec ID : isom (isom/iso2/avc1/mp41)
File size : 1.44 GiB
Duration : 1 h 50 min
Overall bit rate : 1 870 kb/s
Writing application : Lavf58.20.100
Video
ID : 1
Format : AVC
Format/Info : Advanced Video Codec
Format profile : [email protected]
Format settings : CABAC/3 Ref Frames
Format settings, CABAC : Yes
Format settings, ReFrames : 3 frames
Codec ID : avc1
Codec ID/Info : Advanced Video Coding
Duration : 1 h 50 min
Duration_FirstFrame : -40 ms
Bit rate : 1 735 kb/s
Width : 1 920 pixels
Height : 1 080 pixels
Display aspect ratio : 16: 9
Frame rate mode : Variable
Frame rate : 25.000 FPS
Minimum frame rate : 25.000 FPS
Maximum frame rate : 25.014 FPS
Color space : YUV
Chroma subsampling : 4: 2: 0
Bit depth : 8 bits
Scan type : Progressive
Bits/(Pixel*Frame) : 0.033
Stream size : 1.34 GiB (93%)
Writing library : x264 core 155 r2901 7d0ff22
Color range : Limited
Color primaries : BT.709
Transfer characteristics : BT.709
Matrix coefficients : BT.709
Codec configuration box : avcC
Audio
ID : 2
Format : AAC LC
Format/Info : Advanced Audio Codec Low Complexity
Codec ID : mp4a-40-2
Duration : 1 h 50 min
Bit rate mode : Constant
Bit rate : 128 kb/s
Channel(s) : 2 channels
Channel layout : L R
Sampling rate : 44.1 kHz
Frame rate : 43.066 FPS (1024 SPF)
Compression mode : Lossy
Stream size : 101 MiB (7%)
Default : Yes
Alternate group : 1
Скриншоты:



Все одноименные релизы в Клубе
Время раздачи: 24/7 (до появления первых 3-5 скачавших)

Другие торренты по теме:

  • American McGees Alice / Америкэн Макги: Алиса (2000 / 2014) [Ru / En] Repack Cheshire28 [Directors Cat / Специальное издание] скачать через торрент бесплатно

  • Посетители, находящиеся в группе Гости, не могут оставлять комментарии в данной новости.