Подписывайся на наш канал в Telegram https://t.me/torrentok и получи доступ к торрентам без ограничений!

Алекс Лютый (2019) WEBRip [H.264] (сезон 1, серии 1-2 из 12) [MP4|1920x1080] (обновляемая) торрент скачать бесплатно

Алекс Лютый (2019) WEBRip [H.264] (сезон 1, серии 1-2 из 12) [MP4|1920x1080] (обновляемая)Производство: Россия | АМЕДИА Продакшн
Жанр: Детектив, история
Режиссер: Леонид Белозорович
Актеры: Дмитрий Муляр, Сергей Пускепалис, Владислав Коноплёв, Алексей Кирсанов, Юрий Ицков, Анастасия Мытражик, Екатерина Решетникова, Дирк Мартенс, Геннадий Смирнов, Андрей Зибров

Описание

1975 год. На своей подмосковной даче убит писатель, готовящий к выпуску книгу о гитлеровском палаче Алексе Лютом. Прямо перед смертью он успевает сообщить своему другу – начальнику спецотдела МВД по розыску военных преступников, генералу Петру Сомову – невероятную новость: Лютый, который считался погибшим с 1944 года, жив! Сомов даёт задание разобраться в этом деле своему лучшему следователю – полковнику Егору Сухареву. В этом ему помогает новый сотрудник спецотдела – старший лейтенант Борис Касьянов.

Дата российской премьеры: 22 июня 2020
Продолжительность: ~00: 47: 00 серия
Качество видео: WEBRip
Субтитры: Отсутствуют
Видео: AVC/H.264, 1920x1080, ~1570 kbps
Аудио: AAC, 2 ch, 128 kbps - русский
General
Complete name : Алекс_Лютый_S01_2019_WEBRip_1080p_mp4Алекс_Лютый_S01_2019_WEBRip_1080p_02.mp4
Format : MPEG-4
Format profile : Base Media
Codec ID : isom (isom/iso2/avc1/mp41)
File size : 440 MiB
Duration : 47 min 16 s
Overall bit rate : 1 702 kb/s
Writing application : Lavf58.20.100
Video
ID : 1
Format : AVC
Format/Info : Advanced Video Codec
Format profile : [email protected]
Format settings : CABAC/3 Ref Frames
Format settings, CABAC : Yes
Format settings, ReFrames : 3 frames
Codec ID : avc1
Codec ID/Info : Advanced Video Coding
Duration : 47 min 16 s
Duration_FirstFrame : -40 ms
Bit rate : 1 568 kb/s
Width : 1 920 pixels
Height : 1 080 pixels
Display aspect ratio : 16: 9
Frame rate mode : Variable
Frame rate : 25.000 FPS
Minimum frame rate : 25.000 FPS
Maximum frame rate : 25.014 FPS
Color space : YUV
Chroma subsampling : 4: 2: 0
Bit depth : 8 bits
Scan type : Progressive
Bits/(Pixel*Frame) : 0.023
Stream size : 395 MiB (90%)
Writing library : x264 core 155 r2901 7d0ff22
Color range : Limited
Color primaries : BT.709
Transfer characteristics : BT.709
Matrix coefficients : BT.709
Codec configuration box : avcC
Audio
ID : 2
Format : AAC LC
Format/Info : Advanced Audio Codec Low Complexity
Codec ID : mp4a-40-2
Duration : 47 min 16 s
Bit rate mode : Constant
Bit rate : 128 kb/s
Channel(s) : 2 channels
Channel layout : L R
Sampling rate : 44.1 kHz
Frame rate : 43.066 FPS (1024 SPF)
Compression mode : Lossy
Stream size : 43.3 MiB (10%)
Default : Yes
Alternate group : 1

Другие торренты по теме:

  • Алекс Кош | Огненный Факультет (2014) [MP3]
  • Алекс Яновский | Наука Успеха (2014) [MP3] скачать через торрент бесплатно
  • Алекс Кош | Собрание сочинений [19 книг] (2006-2013) [FB2]
  • Алекс Мэй | Идеальный вечер для мужчин (2014) CamRip
  • Алекс Мэй | Идеальный вечер для женщин (2014) CamRip [сексология, соблазнение]
  • Алекс Кош | Огненный факультет (2014) [AAC|M4B]
  • Алекс Мэй | Сборник редких видео (6 записей) (2008-2014) CamRip
  • Алекс Громов, Ольга Шатохина | Историкум. Terra Istoria [сборник] (2015) [FB2] скачать через торрент бесплатно

  • Посетители, находящиеся в группе Гости, не могут оставлять комментарии в данной новости.