Подписывайся на наш канал в Telegram https://t.me/torrentok и получи доступ к торрентам без ограничений!

Сложноподчиненное (2019) WEBRip [H.264] [MP4|1920x1080] торрент скачать бесплатно

Сложноподчиненное (2019) WEBRip [H.264] [MP4|1920x1080]Производство: Россия
Жанр: Короткометражный, драма
Режиссер: Олеся Яковлева
Актеры: Николай Комягин, Дмитрий Кирбай, Елизавета Шакира, Неля Попова, Вячеслав Савельев

Описание

Загадочный учитель приезжает в провинциальный город преподавать в школе. Учитель на учителя не похож, а взгляды его слишком претенциозные и новаторские. Но городу учитель нравится. Правда, он еще не догадывается, до какой степени.

Продолжительность: 00: 26: 09
Качество видео: WEBRip
Перевод: Не требуется (русский)
Субтитры: английские (hardsub)
Видео: AVC/H.264, 1920x1080 (16: 9), ~1325 Kbps
Аудио: AAC, 2 ch, 128 Kbps
Общее
Полное имя : G: Сложноподчиненное (2019).mp4
Формат : MPEG-4
Профиль формата : Base Media
Идентификатор кодека : isom (isom/iso2/avc1/mp41)
Размер файла : 273 Мбайт
Продолжительность : 26 м. 9 с.
Общий поток : 1 460 Кбит/сек
Программа кодирования : Lavf58.33.100
Видео
Идентификатор : 1
Формат : AVC
Формат/Информация : Advanced Video Codec
Профиль формата : [email protected]
Настройки формата : CABAC/3 Ref Frames
Параметр CABAC формата : Да
Параметр RefFrames формата : 3 кадра
Идентификатор кодека : avc1
Идентификатор кодека/Информация : Advanced Video Coding
Продолжительность : 26 м. 9 с.
Битрейт : 1 325 Кбит/сек
Ширина : 1 920 пикселей
Высота : 1 080 пикселей
Соотношение сторон : 16: 9
Режим частоты кадров : Постоянный
Частота кадров : 25, 000 кадров/сек
Цветовое пространство : YUV
Субдискретизация насыщенности : 4: 2: 0
Битовая глубина : 8 бит
Тип развёртки : Прогрессивная
Бит/(Пиксели*Кадры) : 0.026
Размер потока : 248 Мбайт (91%)
Заголовок : ISO Media file produced by Google Inc.
Библиотека кодирования : x264 core 155 r2901 7d0ff22
Цветовой диапазон : Limited
Основные цвета : BT.709
Характеристики трансфера : BT.709
Коэффициенты матрицы : BT.709
Codec configuration box : avcC
Аудио
Идентификатор : 2
Формат : AAC LC
Формат/Информация : Advanced Audio Codec Low Complexity
Идентификатор кодека : mp4a-40-2
Продолжительность : 26 м. 9 с.
Вид битрейта : Постоянный
Битрейт : 128 Кбит/сек
Каналы : 2 канала
Channel layout : L R
Частота : 44, 1 КГц
Частота кадров : 43, 066 кадра/сек (1024 SPF)
Метод сжатия : С потерями
Размер потока : 23, 9 Мбайт (9%)
Заголовок : ISO Media file produced by Google Inc.
Default : Да
Alternate group : 1
Скриншоты:


Все одноименные релизы в Клубе
Время раздачи: 24/7 (круглосуточно) (до появления первых 3-5 скачавших)

Другие торренты по теме:


Посетители, находящиеся в группе Гости, не могут оставлять комментарии в данной новости.