Подписывайся на наш канал в Telegram https://t.me/torrentok и получи доступ к торрентам без ограничений!

Потерянная пуля / Balle perdue / Lost Bullet (2020) WEB-DL [H.264] [MVO] [MP4|1920x800] торрент скачать бесплатно

Потерянная пуля / Balle perdue / Lost Bullet (2020) WEB-DL [H.264] [MVO] [MP4|1920x800]Производство: Франция/Inoxy Films, Nolita TV, Versus Production
Жанр: Боевик, триллер, криминал
Режиссер: Гийом Пьерре
Продюсер: Rémi Leautier, Mathieu Ageron
Актеры: Альбан Ленуар, Николя Дювошель, Рамзи Бедиа, Стефи Сельма, Род Парадо, Себастьян Лаланн, Arthur Aspaturian, Патрик Медиони, Александр Филип, Стивен Скардиккьо

Описание

Мелкий преступник, ставший полицейским механиком для оперативной группы go fast, вынужден защищать свою невиновность, когда его наставник убит грязными полицейскими.

Дата мировой премьеры: 19 июня 2020
Продолжительность: 01: 33: 06
Качество видео: WEB-DL
Перевод: Любительский (многоголосый, закадровый) MUZOBOZ
Субтитры: Русские (Full) | Нетфликс
Видео: AVC/H.264, 1920x800, 2250 Kbps
Аудио: AAC, 2 ch, 192 Kbps - РусскийОбщее
Полное имя : Lost.Bullet.2020.WEB-DL.1080p.mp4
Формат : MPEG-4
Профиль формата : Base Media
Идентификатор кодека : isom (isom/iso2/avc1/mp41)
Размер файла : 1, 59 Гбайт
Продолжительность : 1 ч. 33 м.
Режим общего битрейта : Переменный
Общий поток : 2448 Кбит/сек
HDVideo : Yes
Видео
Идентификатор : 1
Формат : AVC
Формат/Информация : Advanced Video Codec
Профиль формата : [email protected]
Настройки формата : CABAC/4 Ref Frames
Параметр CABAC формата : Да
Параметр RefFrames формата : 4 кадра
Идентификатор кодека : avc1
Идентификатор кодека/Информация : Advanced Video Coding
Продолжительность : 1 ч. 33 м.
Битрейт : 2250 Кбит/сек
Ширина : 1920 пикселей
Высота : 800 пикселей
Соотношение сторон : 2, 40: 1
Режим частоты кадров : Постоянный
Частота кадров : 25, 000 кадров/сек
Цветовое пространство : YUV
Субдискретизация насыщенности : 4: 2: 0
Битовая глубина : 8 бит
Тип развёртки : Прогрессивная
Бит/(Пиксели*Кадры) : 0.059
Размер потока : 1, 46 Гбайт (92%)
Библиотека кодирования : x264 core 158
Настройки программы : cabac=1/ref=4/deblock=1: -1: -1/analyse=0x3: 0x133/me=umh/subme=9/psy=1/psy_rd=1.00: 0.15/mixed_ref=1/me_range=24/chroma_me=1/trellis=2/8x8dct=1/cqm=0/deadzone=21, 11/fast_pskip=0/chroma_qp_offset=-3/threads=18/lookahead_threads=1/sliced_threads=0/nr=0/decimate=1/interlaced=0/bluray_compat=0/constrained_intra=0/bframes=3/b_pyramid=2/b_adapt=2/b_bias=0/direct=3/weightb=1/open_gop=0/weightp=2/keyint=250/keyint_min=23/scenecut=40/intra_refresh=0/rc_lookahead=60/rc=2pass/mbtree=1/bitrate=2250/ratetol=1.0/qcomp=0.60/qpmin=0/qpmax=69/qpstep=4/cplxblur=20.0/qblur=0.5/vbv_maxrate=31250/vbv_bufsize=31250/nal_hrd=none/filler=0/ip_ratio=1.40/aq=1: 1.00
Codec configuration box : avcC
Аудио
Идентификатор : 2
Формат : AAC LC
Формат/Информация : Advanced Audio Codec Low Complexity
Идентификатор кодека : mp4a-40-2
Продолжительность : 1 ч. 33 м.
Вид битрейта : Постоянный
Битрейт : 192 Кбит/сек
Каналы : 2 канала
Channel layout : L R
Частота : 48, 0 КГц
Частота кадров : 46, 875 кадров/сек (1024 SPF)
Метод сжатия : С потерями
Размер потока : 128 Мбайт (8%)
Язык : Russian
Default : Да
AlternateGroup/String : 1
Текст
Идентификатор : 3
Формат : Timed Text
Режим смешивания : sbtl
Идентификатор кодека : tx3g
Продолжительность : 1 ч. 26 м.
Вид битрейта : Переменный
Битрейт : 49 бит/сек
Размер потока : 30, 7 Кбайт (0%)
Язык : Russian
Default : Да
Forced : Нет
AlternateGroup/String : 3Скриншоты:

Все одноименные релизы в Клубе
Время раздачи: 24/7 (до появления первых 3-5 скачавших)

Другие торренты по теме:

  • Потерянная пуля / Balle perdue / Lost Bullet (2020) WEB-DLRip [MVO]
  • Потерянная пуля / Balle perdue / Lost Bullet (2020) WEB-DL [H.264 / 1080p-LQ] [MVO]
  • Потерянная пуля / Balle perdue / Lost Bullet (2020) WEB-DL [H.264 / 1080p-LQ] [VO]

  • Посетители, находящиеся в группе Гости, не могут оставлять комментарии в данной новости.