Подписывайся на наш канал в Telegram https://t.me/torrentok и получи доступ к торрентам без ограничений!

Вспыш и Чудо-Машинки / Blaze and the Monster Machine (2014-2019) WEBRip [H.264] (сезон 1-4, серия 1-80 из 80) [MP4|1280x720] торрент скачать бесплатно

Вспыш и Чудо-Машинки / Blaze and the Monster Machine (2014-2019) WEBRip [H.264] (сезон 1-4, серия 1-80 из 80) [MP4|1280x720]Производство: США, DHX Media, Nerd Corps Entertainment
Жанр: Мультфильм, Детский
Режиссер: Мигель Мартинес-Хоффре, Блэр Симмонс, Scott Pleydell-Pearce и др.

Описание

В небольшом красивом городке Аксель-Сити живут очень необычные жители. Это самые разные машины – маленькие и большие, одни из них никуда не спешат, другие, наоборот, постоянно куда-то спешат. Каждый герой обладает своим уникальным характером, своими умениями и любимыми занятиями. Но главное занятие, которое их объединяет – соревнования между собой. А чтобы в очередной раз узнать, кто является самым достойным, и может получить звание самого лучшего и быстрого автомобиля – они готовы соревноваться на самых сложных трассах города. Главным героем является пикап с интересным именем Вспыш. Его водителем является маленький мальчик по имени Эй-Джи. Он очень любит своего механического друга и готов отправиться с ним в самые опасные приключения. Его даже не пугают грозные и опасные соперники, такие как грузовик Крушила

Возраст: 6+ (зрителям, достигшим 6 лет)
Продолжительность: ~00: 22: 00 серия
Качество видео: WEBRip
Перевод: Дублированный
Субтитры: отсутствуют
Видео: AVC/H.264, 1280x720, ~2569 kbps
Аудио: AC3, 2 ch, 256 kbps - русский
Format : MPEG-4
Format profile : Base Media
Codec ID : isom (isom/iso2/avc1/mp41)
File size : 457 MiB
Duration : 22 min 36 s
Overall bit rate : 2 826 kb/s
Writing application : Lavf55.33.100
Video
ID : 1
Format : AVC
Format/Info : Advanced Video Codec
Format profile : [email protected]
Format settings : CABAC/4 Ref Frames
Format settings, CABAC : Yes
Format settings, Reference : 4 frames
Codec ID : avc1
Codec ID/Info : Advanced Video Coding
Duration : 22 min 36 s
Bit rate : 2 569 kb/s
Width : 1 280 pixels
Height : 720 pixels
Display aspect ratio : 16: 9
Frame rate mode : Constant
Frame rate : 25.000 FPS
Color space : YUV
Chroma subsampling : 4: 2: 0
Bit depth : 8 bits
Scan type : Progressive
Bits/(Pixel*Frame) : 0.112
Stream size : 415 MiB (91%)
Writing library : x264 core 142
Encoding settings : cabac=1/ref=3/deblock=1: 0: 0/analyse=0x3: 0x113/me=hex/subme=7/psy=1/psy_rd=1.00: 0.00/mixed_ref=1/me_range=16/chroma_me=1/trellis=1/8x8dct=1/cqm=0/deadzone=21, 11/fast_pskip=1/chroma_qp_offset=-2/threads=84/lookahead_threads=5/sliced_threads=0/nr=0/decimate=1/interlaced=0/bluray_compat=0/constrained_intra=0/bframes=6/b_pyramid=2/b_adapt=1/b_bias=0/direct=1/weightb=1/open_gop=0/weightp=2/keyint=50/keyint_min=26/scenecut=0/intra_refresh=0/rc_lookahead=40/rc=2pass/mbtree=1/bitrate=2569/ratetol=1.0/qcomp=0.60/qpmin=0/qpmax=69/qpstep=4/cplxblur=20.0/qblur=0.5/vbv_maxrate=3854/vbv_bufsize=10279/nal_hrd=none/filler=0/ip_ratio=1.40/aq=1: 1.00
Tagged date : UTC 2018-01-12 19: 10: 44
Codec configuration box : avcC
Audio
ID : 2
Format : AAC LC
Format/Info : Advanced Audio Codec Low Complexity
Codec ID : mp4a-40-2
Duration : 22 min 36 s
Duration_LastFrame : 43 ms
Bit rate mode : Constant
Bit rate : 256 kb/s
Channel(s) : 2 channels
Channel layout : L R
Sampling rate : 48.0 kHz
Frame rate : 46.875 FPS (1024 SPF)
Compression mode : Lossy
Stream size : 41.4 MiB (9%)
Default : Yes
Alternate group : 1

1 сезон:
01 серия. Дорога к славе часть 1
02 серия. Дорога к славе часть 2
03 серия. Движущая сила
04 серия. Схватка за инструменты
05 серия. Прыгающие шины
06 серия. Трюкомания
07 серия. Эпический круиз
08 серия. Командная гонка пикапов
09 серия. Рог джунглей
10 серия. Команда для авто-мяча
11 серия. Торто-строфа
12 серия. Таинственный Бандит
13 серия. Зег и яйцо
14 серия. Грязьети
15 серия. Авторейнджеры
16 серия. Хлопоты с автомойкой
17 серия. Прогон скота
18 серия. Схватка на Драконьем острове
19 серия. Сбежавшая ракета
20 серия. Чихальная простуда
2 сезон:
01 Серия. Гонка к вершине мира. Часть 1
02 Серия. Гонка к вершине мира. Часть 2
03 Серия. Сладость или гадость!
04 Серия. Дино-игры
05 Серия. Свинка 500
06 Серия. Огонь!
07 Серия. Рыцари-гонщики
08 Серия. Рождество у чудо-машинок
09 Серия. Смельчак летит на луну!
10 Серия. Огненный жук
11 Серия. Вспыш-пожарный
12 Серия. Большой кубок Аксель-сити
13 Серия. Гонка за кладом
14 Серия. Унесенный лыжами
15 Серия. Парад динозавров
16 Серия. Сила Огурчика
17 Серия. Гоночная суперзвезда
18 Серия. Гонка к орлиному камню
19 Серия. Небесная трасса
20 Серия. Колесо желаний
3 сезон:
01 Серия. Гонка на сто миль
02 Серия. Полярная гонка
03 Серия. Дино гонка
04 Серия. Сонные рыцари
05 Серия. Супер грязевой робот
06 Серия. Гонщики света
07 Серия. Трасса дикий буйвол
08 Серия. Могучий тягач
09 Серия. Держи торт
10 Серия. Остров животных
11 Серия. Тукан может
12 Серия. Большое муравьиное приключение
13 Серия. Полет сокола
14 Серия. На старт, внимание, рык!
15 Серия. Великая корона животных
16 Серия. Новые друзья
17 Серия. Гонка за золотым кладом
18 Серия. Нужна супер скорость
19 Серия. Переиграть обманщика
20 Серия. Спасательные гонки
4 сезон:
01 серия. Робо сила
02 серия. Поход семьи огурчиков
03 серия. Куриный цирк
04 серия. Ниндзя Вспыш
05 серия. Супер огромный приз
06 серия. Разбивая лёд
07 серия. Роботы спешат на помощь
08 серия. Динозавры в беде
09 серия. Тефтельный разгром
10 серия. Роботы в космосе
11 серия. Супер шины
12 серия. Снежная битва
13 серия. Стройотряд спешит на помощь
14 серия. Офицер Вспыш
15 серия. Летающий Лев
16 серия. Королевское спасение
17 серия. Вспыш и волшебный джинн
18 серия. Гонка за яйцами
19 серия. Полуночная миля
20 серия. Ниндзя суп
Скриншоты:


Все одноименные релизы в Клубе
Время раздачи: Пн-Вс с 19: 00 до 22: 00 (до появления первых 3-5 скачавших) (до появления первых 3-5 скачавших)

Другие торренты по теме:

  • Вспыш и чудо-машинки / Blaze and the Monster Machines (2014-2015) SATRip / WEB-DL [H.264 / 1080p - LQ] (1 сезон, серий 20 из 20)
  • Вспыш и Чудо-Машинки / Blaze and the Monster Machine (2014-2016) HDTV [H.264 / 1080i-LQ] (1-2 сезон, серий 39 из 40)

  • Посетители, находящиеся в группе Гости, не могут оставлять комментарии в данной новости.