Подписывайся на наш канал в Telegram https://t.me/torrentok и получи доступ к торрентам без ограничений!

Детский КВН (2020) WEBRip [H.264] (сезон 2, выпуск 4) [MP4|1920x1080] торрент скачать бесплатно

Детский КВН (2020) WEBRip [H.264] (сезон 2, выпуск 4) [MP4|1920x1080]Производство: Россия | Канал СТС, АМиК
Жанр: Юмор, игра
Режиссер: Константин Куц, Вадим Киселёв
Ведущие: Ева Смирнова, Михаил Галустян, Юлия Михалкова

Описание

Детский КВН — это телевизионная игра, в которой команды юных ребят будут соревноваться в остроумии, находчивости и, конечно же, чувстве юмора.
Участники игры в возрасте от 4 до 16 лет, покажут юмористические зарисовки, а жюри, в составе которого известные артисты и звезды Высшей лиги КВН — решит, кто из них достоин дойти до финала. Впервые в истории игры жюри отказалось от оценок. Чтобы пропустить две лучшие команды в следующий этап, звёзды совещаются в финале каждого выпуска.

Возраст: 6+ (зрителям, достигшим 6 лет)
Продолжительность: 00: 45: 18
Качество видео: WEBRip
Субтитры: Отсутствуют
Видео: AVC/H.264, 1920x1080, ~3010 kbps
Аудио: AAC, 2 ch, 128 kbps - русский
General
Complete name : Детский КВНДетский КВН Сезон 2 Выпуск 4.mp4
Format : MPEG-4
Format profile : Base Media
Codec ID : isom (isom/iso2/avc1/mp41)
File size : 1 019 MiB
Duration : 45 min 18 s
Overall bit rate : 3 145 kb/s
Writing application : Lavf58.20.100
Video
ID : 1
Format : AVC
Format/Info : Advanced Video Codec
Format profile : [email protected]
Format settings : CABAC/3 Ref Frames
Format settings, CABAC : Yes
Format settings, ReFrames : 3 frames
Codec ID : avc1
Codec ID/Info : Advanced Video Coding
Duration : 45 min 18 s
Duration_FirstFrame : -40 ms
Bit rate : 3 011 kb/s
Width : 1 920 pixels
Height : 1 080 pixels
Display aspect ratio : 16: 9
Frame rate mode : Variable
Frame rate : 25.000 FPS
Minimum frame rate : 25.000 FPS
Maximum frame rate : 25.014 FPS
Color space : YUV
Chroma subsampling : 4: 2: 0
Bit depth : 8 bits
Scan type : Progressive
Bits/(Pixel*Frame) : 0.058
Stream size : 976 MiB (96%)
Writing library : x264 core 155 r2901 7d0ff22
Color range : Limited
Color primaries : BT.709
Transfer characteristics : BT.709
Matrix coefficients : BT.709
Codec configuration box : avcC
Audio
ID : 2
Format : AAC LC
Format/Info : Advanced Audio Codec Low Complexity
Codec ID : mp4a-40-2
Duration : 45 min 18 s
Bit rate mode : Constant
Bit rate : 128 kb/s
Channel(s) : 2 channels
Channel layout : L R
Sampling rate : 44.1 kHz
Frame rate : 43.066 FPS (1024 SPF)
Compression mode : Lossy
Stream size : 41.5 MiB (4%)
Default : Yes
Alternate group : 1
Скриншоты:


Все одноименные релизы в Клубе
Время раздачи: 24/7 (до появления первых 3-5 скачавших)

Другие торренты по теме:

  • Детский ансамбль «Гномы» - А я уже большая (2018) [MP3|320 Kbps]<Детские песни>
  • Детский ансамбль «Гномы» - Зайцы (2019) [MP3|320 Kbps]<Детские песни>
  • Сборник - Детский клипарт 6 / Children Graphics 6 [JPEG,EPS,AI]
  • Детский сад (1983) SATRip скачать через торрент бесплатно
  • Всероссийский детский центр Орленок (2013) HDTVRip
  • Детский сад поэзии / A Childs Garden of Poetry (2011) HDTV [H.264 / 1080i] скачать через торрент бесплатно
  • Детский кораблик 1.0.1 [Ru] скачать через торрент бесплатно
  • Kids Way. Детский режим+мульты 1.11 [Ru] скачать через торрент бесплатно

  • Посетители, находящиеся в группе Гости, не могут оставлять комментарии в данной новости.