Подписывайся на наш канал в Telegram https://t.me/torrentok и получи доступ к торрентам без ограничений!

Вызов принят (2019) WEBRip [H.264] [MP4|1920x1012] торрент скачать бесплатно

Вызов принят (2019) WEBRip [H.264] [MP4|1920x1012]Производство: Россия | КиноНива
Жанр: Короткометражный
Режиссер: Олег Захаров
Актеры: Мария Боровкова, Максим Чернышев, Софья Шапченко, Леокадия Тажиева, Эвелина Тажиева, Василиса Иванова, Федор Спирин, Элина Охлопкова, Олег Захаров

Описание

Короткометражный фильм Олега захарова Вызов принят, это трогательный фильм о любви, о юности, о дружбе и... о музыке.
Продолжительность: 00: 19: 39
Качество видео: WEBRip
Перевод: Не требуется (русский)
Субтитры: Отсутствуют
Видео: AVC/H.264, 1920x1012 (1.897), ~2070 kbps
Аудио: AAC, 2 ch, 128 kbps - русский
General
Complete name : Вызов_принят_2019_WEBRip_1080p.mp4
Format : MPEG-4
Format profile : Base Media
Codec ID : isom (isom/iso2/avc1/mp41)
File size : 310 MiB
Duration : 19 min 39 s
Overall bit rate : 2 204 kb/s
Writing application : Lavf58.20.100
Video
ID : 1
Format : AVC
Format/Info : Advanced Video Codec
Format profile : [email protected]
Format settings : CABAC/3 Ref Frames
Format settings, CABAC : Yes
Format settings, ReFrames : 3 frames
Codec ID : avc1
Codec ID/Info : Advanced Video Coding
Duration : 19 min 39 s
Duration_FirstFrame : -40 ms
Bit rate : 2 070 kb/s
Width : 1 920 pixels
Height : 1 012 pixels
Display aspect ratio : 1.897
Frame rate mode : Variable
Frame rate : 25.000 FPS
Minimum frame rate : 25.000 FPS
Maximum frame rate : 25.014 FPS
Color space : YUV
Chroma subsampling : 4: 2: 0
Bit depth : 8 bits
Scan type : Progressive
Bits/(Pixel*Frame) : 0.043
Stream size : 291 MiB (94%)
Writing library : x264 core 155 r2901 7d0ff22
Color range : Limited
Color primaries : BT.709
Transfer characteristics : BT.709
Matrix coefficients : BT.709
Codec configuration box : avcC
Audio
ID : 2
Format : AAC LC
Format/Info : Advanced Audio Codec Low Complexity
Codec ID : mp4a-40-2
Duration : 19 min 39 s
Bit rate mode : Constant
Bit rate : 128 kb/s
Channel(s) : 2 channels
Channel layout : L R
Sampling rate : 44.1 kHz
Frame rate : 43.066 FPS (1024 SPF)
Compression mode : Lossy
Stream size : 18.0 MiB (6%)
Default : Yes
Alternate group : 1
Скриншоты:


Все одноименные релизы в Клубе
Время раздачи: 24/7 (до появления первых 3-5 скачавших)

Другие торренты по теме:

  • Ярослав Соколов | Вызов принят. Невероятные истории спасения, рассказанные российскими врачами (2018) [FB2]

  • Посетители, находящиеся в группе Гости, не могут оставлять комментарии в данной новости.