Подписывайся на наш канал в Telegram https://t.me/torrentok и получи доступ к торрентам без ограничений!

Ах, моя молодость / Gencligim Eyvah (2020) WEB-DLRip [H.264] (сезон 1, серии 1-3 из ) SesDizi [MP4|1280x720] (обновляемая) торрент скачать бесплатно

Ах, моя молодость / Gencligim Eyvah (2020) WEB-DLRip [H.264] (сезон 1, серии 1-3 из ) SesDizi [MP4|1280x720] (обновляемая)Производство: Турция/Surec Film
Жанр: Комедия
Режиссер: Дениз Йылмаз
Актеры: Дженгиз Бозкурт, Левент Ульген, Гюнай Караджаоглу, Ульвие Караджа, Элиф Доган, Экин Мерт Даймаз, Бурак Тозкопаран, Эрдем Кайнарджа, Бахар Сюэр, Кемаль Учар

Описание

Новый комедийный сериал повествует про тайны, интриги и любовь, вертящиеся вокруг двух враждующих семей. Семьи Зекерьи Бозоглу из Урфы и Арифа Асмалы из Аданы владеют шашлычными и постоянно конкурируют друг с другом, ведут непримиримую борьбу и работают в одном районе. Однажды выясняется, что у Арифа и Зекерьи есть незаконнорожденные сыновья - Зола и Чава. И два заклятых врага начинют придумывать разные авантюры, чтобы скрыть их от своих жен. К тому же, любимая дочь Зекерьи Азра влюбляется в красавца сына Арифа Золу. Влюбленным придется преодолеть немало испытаний на своем пути к счастью...

Продолжительность: ~02: 21: 00 серия
Качество видео: WEB-DLRip
Перевод: Двухголосый любительский (SesDizi)
Субтитры: отсутствуют
Видео: AVC/H.264, 1280x720, ~1647 kbps
Аудио: AAC, 2 ch, 160 kbps
General
Complete name : J: Molodosth.s01.WEB-DLRip720p.SesDiziMolodosth.s01.e01.WEB-DLRip720p.SesDizi.mp4
Format : MPEG-4
Format profile : Base Media
Codec ID : isom (isom/avc1)
File size : 1.79 GiB
Duration : 2 h 21 min
Overall bit rate mode : Variable
Overall bit rate : 1 810 kb/s
Encoded date : UTC 2020-06-16 08: 50: 44
Tagged date : UTC 2020-06-16 08: 50: 44
Writing application : My MP4Box GUI 0.6.0.6 http://my-mp4box-gui.zymichost.com
Video
ID : 1
Format : AVC
Format/Info : Advanced Video Codec
Format profile : [email protected]
Format settings : CABAC/3 Ref Frames
Format settings, CABAC : Yes
Format settings, Reference fra : 3 frames
Codec ID : avc1
Codec ID/Info : Advanced Video Coding
Duration : 2 h 21 min
Bit rate : 1 647 kb/s
Maximum bit rate : 7 114 kb/s
Width : 1 280 pixels
Height : 720 pixels
Display aspect ratio : 16: 9
Frame rate mode : Constant
Frame rate : 25.000 FPS
Color space : YUV
Chroma subsampling : 4: 2: 0
Bit depth : 8 bits
Scan type : Progressive
Bits/(Pixel*Frame) : 0.071
Stream size : 1.63 GiB (91%)
Title : 1_track1.h264
Encoded date : UTC 2020-06-16 08: 50: 44
Tagged date : UTC 2020-06-16 08: 52: 37
Color range : Limited
Color primaries : BT.709
Transfer characteristics : BT.709
Matrix coefficients : BT.709
Codec configuration box : avcC
Audio
ID : 2
Format : AAC LC
Format/Info : Advanced Audio Codec Low Complexity
Codec ID : mp4a-40-2
Duration : 2 h 21 min
Bit rate mode : Variable
Bit rate : 160 kb/s
Maximum bit rate : 169 kb/s
Channel(s) : 2 channels
Channel layout : L R
Sampling rate : 44.1 kHz
Frame rate : 43.066 FPS (1024 SPF)
Compression mode : Lossy
Stream size : 162 MiB (9%)
Title : 1ð_track2.aac
Encoded date : UTC 2020-06-16 08: 52: 32
Tagged date : UTC 2020-06-16 08: 52: 37
Скриншоты:

Все одноименные релизы в Клубе
Время раздачи: с 11: 00 до 3: 00 (до появления первых 3-5 скачавших) (до появления первых 3-5 скачавших)

Другие торренты по теме:

  • Прекрасная молодость / Hermosa juventud (2014) WEB-DL [720p] ATV
  • Прекрасная молодость / Hermosa juventud (2014) WEB-DL [1080p] ATV скачать через торрент бесплатно
  • Михаил Дашкиев, Пётр Осипов (Бизнес-молодость) | Коучинг (2012) CamRip
  • Ли Холден | Вечная молодость (2014) HDRip скачать через торрент бесплатно
  • Сделано в СССР. Борьба за молодость (2015) SATRip скачать через торрент бесплатно
  • Молодость / Youth (2015) BDRip [H.264 / 720p] [EN / EN Sub] скачать через торрент бесплатно
  • Молодость / Youth (2015) BDRip [H.264 / 1080p] [EN / EN Sub] скачать через торрент бесплатно
  • Молодость / Youth (2015) HDRip [Звук с TS] скачать через торрент бесплатно

  • Посетители, находящиеся в группе Гости, не могут оставлять комментарии в данной новости.