Подписывайся на наш канал в Telegram https://t.me/torrentok и получи доступ к торрентам без ограничений!

Детский КВН (2017) WEBRip [H.264] (сезон 1, выпуск 1-12 из 12) [MP4|1920x1080] торрент скачать бесплатно

Детский КВН (2017) WEBRip [H.264] (сезон 1, выпуск 1-12 из 12) [MP4|1920x1080]Производство: Россия | АМиК
Жанр: Юмор, игра
Ведущие: Таисия Маслякова, Алексей Королев

Описание

Детский КВН — это проект АМИК, который призван сделать КВН для детей таким же популярным как и КВН для взрослых! Детский КВН — это творение Всероссийской Юниорской Лиги КВН (или просто Юниор Лига), которая существует с 2001 года. Здесь ребята не только играют в КВН, но и участвуют во многих образовательных проектах, турнирах, фестивалях. Главная задача Юниор Лиги — создать интересный досуг для школьников и развить их творческий потенциал!
Продолжительность: 00: 47: 00 выпуск
Качество видео: WEBRip
Субтитры: Отсутствуют
Видео: AVC/H.264, 1920x1080, ~3400 kbps
Аудио: AAC, 2 ch, 128 kbps - русский
General
Complete name : D: Детский_КВН_S01_2017_WEBRip_1080pДетский_КВН_S01_2017_WEBRip_1080p_04.mp4
Format : MPEG-4
Format profile : Base Media
Codec ID : isom (isom/iso2/avc1/mp41)
File size : 1.05 GiB
Duration : 42 min 26 s
Overall bit rate : 3 558 kb/s
Writing application : Lavf58.20.100
Video
ID : 1
Format : AVC
Format/Info : Advanced Video Codec
Format profile : [email protected]
Format settings : CABAC/4 Ref Frames
Format settings, CABAC : Yes
Format settings, ReFrames : 4 frames
Codec ID : avc1
Codec ID/Info : Advanced Video Coding
Duration : 42 min 26 s
Duration_FirstFrame : -40 ms
Bit rate : 3 420 kb/s
Width : 1 920 pixels
Height : 1 080 pixels
Display aspect ratio : 16: 9
Frame rate mode : Variable
Frame rate : 25.000 FPS
Minimum frame rate : 25.000 FPS
Maximum frame rate : 25.014 FPS
Color space : YUV
Chroma subsampling : 4: 2: 0
Bit depth : 8 bits
Scan type : Progressive
Bits/(Pixel*Frame) : 0.066
Stream size : 1.02 GiB (96%)
Color range : Limited
Color primaries : BT.709
Transfer characteristics : BT.709
Matrix coefficients : BT.709
Codec configuration box : avcC
Audio
ID : 2
Format : AAC LC
Format/Info : Advanced Audio Codec Low Complexity
Codec ID : mp4a-40-2
Duration : 42 min 26 s
Bit rate mode : Constant
Bit rate : 128 kb/s
Channel(s) : 2 channels
Channel layout : L R
Sampling rate : 44.1 kHz
Frame rate : 43.066 FPS (1024 SPF)
Compression mode : Lossy
Stream size : 38.1 MiB (4%)
Default : Yes
Alternate group : 1
Скриншоты:


Все одноименные релизы в Клубе
Время раздачи: 24/7 (до появления первых 3-5 скачавших)

Другие торренты по теме:

  • Детский КВН (2020) WEBRip [H.264] (сезон 2, выпуск 9) [MP4|1920x1080]
  • Детский КВН (2020) WEBRip [H.264] (сезон 2, выпуск 10) [MP4|1920x1080]
  • Детский КВН (2020) WEBRip [H.264] (сезон 2, выпуск 12, финал) [MP4|1920x1080]
  • Детский КВН (2020) WEBRip [H.264] (сезон 2, выпуск 11) [MP4|1920x1080]
  • Детский КВН (2020) WEBRip [H.264] (сезон 2, выпуск 8) [MP4|1920x1080]
  • Детский КВН (2020) WEBRip [H.264] (сезон 2, выпуск 7) [MP4|1920x1080]
  • Детский КВН (2020) WEBRip [H.264] (сезон 2, выпуск 6) [MP4|1920x1080]
  • Детский КВН (2020) WEBRip [H.264] (сезон 2, выпуск 5) [MP4|1920x1080]

  • Посетители, находящиеся в группе Гости, не могут оставлять комментарии в данной новости.