Подписывайся на наш канал в Telegram https://t.me/torrentok и получи доступ к торрентам без ограничений!

Чудо-врач / Чудо-доктор / Mucize Doktor (2019) WEB-DLRip (сезон 1, серии 1-28 из 28) SesDizi [MP4|1920x1080] торрент скачать бесплатно

Чудо-врач / Чудо-доктор / Mucize Doktor (2019) WEB-DLRip (сезон 1, серии 1-28 из 28) SesDizi [MP4|1920x1080]Производство: Турция/MF Yapım
Жанр: Драма
Режиссер: Юсуф Пирхасан
Актеры: Танер Ольмез, Синем Унсал, Онур Туна, Озге Оздер, Реха Озджан, Мурат Айген, Хазал Тюресан, Фырат Алтунмеше, Корхан Хердуран, Хаяль Кёсеоглу

Описание

Ремейк популярного американского и корейского сериала Хороший доктор. Повествует он о молодом хирурге с диагнозом аутизм, который получает работу в одной из престижных клиник за свой прирожденный талант спасать жизни пациентов, и бросающий вызов скептицизму своих коллег. Доктору Али придется на деле доказывать, что он необыкновенный хирург и просто уникальный человек.

Продолжительность: ~02: 00: 00 серия
Качество видео: WEB-DLRip
Перевод: Двуголосый любительский (SesDizi)
Субтитры: Отсутствуют
Видео: AVC/H.264, 1920x1080, ~1500 kbps
Аудио: AAC, 2 ch, 192 kbps - русский
General
Complete name : J: Doktor.s01.WEB-DLRip1080p.SesDiziDoktor.s01.e01.WEB-DLRip1080p.SesDizip.mp4
Format : MPEG-4
Format profile : Base Media
Codec ID : isom (isom/avc1/iso6)
File size : 1.35 GiB
Duration : 1 h 53 min
Overall bit rate mode : Variable
Overall bit rate : 1 702 kb/s
Encoded date : UTC 2019-10-11 22: 39: 32
Tagged date : UTC 2019-10-11 22: 39: 32
Writing application : My MP4Box GUI 0.6.0.6 http://my-mp4box-gui.zymichost.com
Video
ID : 1
Format : AVC
Format/Info : Advanced Video Codec
Format profile : [email protected]
Format settings : CABAC/3 Ref Frames
Format settings, CABAC : Yes
Format settings, Reference fra : 3 frames
Codec ID : avc1
Codec ID/Info : Advanced Video Coding
Duration : 1 h 53 min
Bit rate : 1 504 kb/s
Maximum bit rate : 5 608 kb/s
Width : 1 920 pixels
Height : 1 080 pixels
Display aspect ratio : 16: 9
Frame rate mode : Constant
Frame rate : 25.000 FPS
Color space : YUV
Chroma subsampling : 4: 2: 0
Bit depth : 8 bits
Scan type : Progressive
Bits/(Pixel*Frame) : 0.029
Stream size : 1.19 GiB (88%)
Title : 1_track1.h264
Writing library : x264 core 155 r2901 7d0ff22
Encoded date : UTC 2019-10-11 22: 39: 32
Tagged date : UTC 2019-10-11 22: 41: 20
Color range : Limited
Color primaries : BT.709
Transfer characteristics : BT.709
Matrix coefficients : BT.709
Codec configuration box : avcC
Audio
ID : 2
Format : AAC LC
Format/Info : Advanced Audio Codec Low Complexity
Codec ID : mp4a-40-2
Duration : 1 h 53 min
Bit rate mode : Variable
Bit rate : 192 kb/s
Maximum bit rate : 225 kb/s
Channel(s) : 2 channels
Channel layout : L R
Sampling rate : 44.1 kHz
Frame rate : 43.066 FPS (1024 SPF)
Compression mode : Lossy
Stream size : 158 MiB (11%)
Title : Doktor.s01.e01.2019.L2.WEBRip720p_track2.aac
Encoded date : UTC 2019-10-11 22: 40: 55
Tagged date : UTC 2019-10-11 22: 41: 20
Скриншоты:

Все одноименные релизы в Клубе
Время раздачи: с 11: 00 до 3: 00 (до появления первых 3-5 скачавших)

Другие торренты по теме:


Посетители, находящиеся в группе Гости, не могут оставлять комментарии в данной новости.