Подписывайся на наш канал в Telegram https://t.me/torrentok и получи доступ к торрентам без ограничений!

Защитник / Hakan: Muhafiz / The Protector (2018-2020) WEB-DLRip [H.264] (сезон 1-4, серии 1-32 из 32) АРК-ТВ, VSI Moscow [MP4|1280x720] торрент скачать бесплатно

Защитник / Hakan: Muhafiz / The Protector (2018-2020) WEB-DLRip [H.264] (сезон 1-4, серии 1-32 из 32) АРК-ТВ, VSI Moscow [MP4|1280x720]Производство: Турция/O3 Turkey Medya , Netflix, Netflix Studios
Жанр: Боевик, фэнтези, фантастика
Режиссер: Джан Эвренол, Гёкхан Тиряки, Умут Арал, Гонендж Уяник
Актеры: Чагатай Улусой, Хазар Эргючлю, Окан Ялабык, Айча Айшин Туран, Бурчин Терзиоглу, Юрдаэр Окур, Мехмет Куртулуш, Сайгын Сойсал, Боран Кузум, Танер Ольмез

Описание

Сериал снимался по роману Ипек Гёкдель Каракалем и странная история молодого человека/Karakalem ve Bir Delikanlinin Tuhaf Hikayesi. Сценарий к сериалу написал Джейсон Джордж, сценарист знаменитого американского сериала Нарко, выпущенный студией Netflix. Хакан узнаёт, что ему дано тайное задание – он должен оберегать Стамбул. В начале истории Хакан является простым парнем, он один из жителей 15 миллионного города, и очень далек от того, чтобы стать героем. Однако, когда он узнает, что город находится в опасности, подвергается разрушению со стороны бессмертных, появившихся из прошлого, у Хакана не остается другого выхода, как остановить их. Но Хакан пока не готов к подобному заданию, и не хочет принимать этого, так сможет ли он выполнить свою миссию и спасти город?

Продолжительность: ~00: 45: 00 серия
Качество видео: WEB-DLRip
Перевод: Многоголосый профессиональный (АРК-ТВ, VSI Moscow)
Язык озвучки: Русский
Субтитры: отсутствуют
Видео: AVC/H.264, 1280x720, ~1787 kbps
Аудио: AAC, 2 ch, 127 kbps
General
Complete name : J: Zashchitnik.s01-04.WEBRip720pZashchitnik.s01.e01.WEB-DLRip720p.mp4
Format : MPEG-4
Format profile : Base Media
Codec ID : isom (isom/iso2/avc1/mp41)
File size : 625 MiB
Duration : 45 min 32 s
Overall bit rate mode : Variable
Overall bit rate : 1 919 kb/s
Writing application : Lavf58.12.100
Video
ID : 1
Format : AVC
Format/Info : Advanced Video Codec
Format profile : [email protected]
Format settings : CABAC/4 Ref Frames
Format settings, CABAC : Yes
Format settings, Reference fra : 4 frames
Codec ID : avc1
Codec ID/Info : Advanced Video Coding
Duration : 45 min 32 s
Bit rate : 1 787 kb/s
Width : 1 280 pixels
Height : 720 pixels
Display aspect ratio : 16: 9
Frame rate mode : Constant
Frame rate : 24.000 FPS
Color space : YUV
Chroma subsampling : 4: 2: 0
Bit depth : 8 bits
Scan type : Progressive
Bits/(Pixel*Frame) : 0.081
Stream size : 582 MiB (93%)
Writing library : x264 core 157 r2969 d4099dd
Encoding settings : cabac=1/ref=3/deblock=1: 0: 0/analyse=0x3: 0x113/me=hex/subme=7/psy=1/psy_rd=1.00: 0.00/mixed_ref=1/me_range=16/chroma_me=1/trellis=1/8x8dct=1/cqm=0/deadzone=21, 11/fast_pskip=1/chroma_qp_offset=-2/threads=22/lookahead_threads=3/sliced_threads=0/nr=0/decimate=1/interlaced=0/bluray_compat=0/constrained_intra=0/bframes=3/b_pyramid=2/b_adapt=1/b_bias=0/direct=1/weightb=1/open_gop=0/weightp=2/keyint=48/keyint_min=25/scenecut=0/intra_refresh=0/rc_lookahead=40/rc=crf/mbtree=1/crf=20.0/qcomp=0.60/qpmin=0/qpmax=69/qpstep=4/ip_ratio=1.40/aq=1: 1.00
Codec configuration box : avcC
Audio
ID : 2
Format : AAC LC
Format/Info : Advanced Audio Codec Low Complexity
Codec ID : mp4a-40-2
Duration : 45 min 32 s
Bit rate mode : Variable
Bit rate : 127 kb/s
Maximum bit rate : 131 kb/s
Channel(s) : 2 channels
Channel layout : L R
Sampling rate : 48.0 kHz
Frame rate : 46.875 FPS (1024 SPF)
Compression mode : Lossy
Stream size : 41.5 MiB (7%)
Language : Russian
Default : Yes
Alternate group : 1
Скриншоты:


Все одноименные релизы в Клубе
Время раздачи: с 11: 00 до 3: 00 (до появления первых 3-5 скачавших) (до появления первых 3-5 скачавших)

Другие торренты по теме:

  • Защитник / Concussion (2015) DVDScr [EN] скачать через торрент бесплатно
  • Защитник / Concussion (2015) DVDScr скачать через торрент бесплатно
  • Защитник / Concussion (2015) DVDScr
  • Защитник / Concussion (2015) BDRip [H.264 / 720p]
  • Защитник / Concussion (2015) BDRip [H.264 / 1080p]
  • Защитник / Concussion (2015) HDRip
  • Защитник / Concussion (2015) HDRip
  • Защитник / Concussion (2015) BDRemux [H.264 / 1080p] [EN / EN, Fr, Sp Sub]

  • Посетители, находящиеся в группе Гости, не могут оставлять комментарии в данной новости.