Подписывайся на наш канал в Telegram https://t.me/torrentok и получи доступ к торрентам без ограничений!

Криминальное наследство (2014) WEBRip [H.264] (серии 1-4 из 4) [MP4|1920x1080] торрент скачать бесплатно

Криминальное наследство (2014) WEBRip [H.264] (серии 1-4 из 4) [MP4|1920x1080]Производство: Россия | Фильм 232
Жанр: Криминал, драма, боевик
Режиссер: Алексей Луканев
Актеры: Кирилл Запорожский, Александр Галибин, Екатерина Молоховская, Денис Синявский, Анастасия Лукьянова, Ольга Михайлова, Игорь Стаценко, Виктор Муравский, Алексей Коршиков, Алексей Андреев

Описание

Многие годы тренер по биатлону Борис Ермаков скрывал от семьи неприглядную правду о своей жизни. Когда-то, в лихие девяностые, он был киллером крупной преступной группировки. Однажды прошлое напомнило о себе самым безжалостным образом: преступники похитили младшего сына Бориса — Андрея. Борис должен был вспомнить прежнее ремесло и убить своего бывшего воспитанника, а ныне крупного бизнесмена Струкова. Только вот сам тренер из-за проблем со здоровьем оказался не в состоянии выполнить заказ, и это пришлось сделать старшему сыну Бориса, Денису…

Возраст: 16+ (зрителям, достигшим 16 лет)
Продолжительность: ~00: 45: 00 серия
Качество видео: WEBRip
Видео: AVC/H.264, 1920x1080, ~1960 kbps
Аудио: AAC, 2 ch, 128 Kbps
General
Complete name : Криминальное наследство_2014_WEBRip_1080p2.mp4
Format : MPEG-4
Format profile : Base Media
Codec ID : isom (isom/iso2/avc1/mp41)
File size : 656 MiB
Duration : 43 min 48 s
Overall bit rate : 2 094 kb/s
Writing application : Lavf58.20.100
Video
ID : 1
Format : AVC
Format/Info : Advanced Video Codec
Format profile : [email protected]
Format settings : CABAC/3 Ref Frames
Format settings, CABAC : Yes
Format settings, ReFrames : 3 frames
Codec ID : avc1
Codec ID/Info : Advanced Video Coding
Duration : 43 min 48 s
Duration_FirstFrame : -40 ms
Bit rate : 1 960 kb/s
Width : 1 920 pixels
Height : 1 080 pixels
Display aspect ratio : 16: 9
Frame rate mode : Variable
Frame rate : 25.000 FPS
Minimum frame rate : 25.000 FPS
Maximum frame rate : 25.014 FPS
Color space : YUV
Chroma subsampling : 4: 2: 0
Bit depth : 8 bits
Scan type : Progressive
Bits/(Pixel*Frame) : 0.038
Stream size : 614 MiB (94%)
Writing library : x264 core 155 r2901 7d0ff22
Color range : Limited
Color primaries : BT.709
Transfer characteristics : BT.709
Matrix coefficients : BT.709
Codec configuration box : avcC
Audio
ID : 2
Format : AAC LC
Format/Info : Advanced Audio Codec Low Complexity
Codec ID : mp4a-40-2
Duration : 43 min 48 s
Bit rate mode : Constant
Bit rate : 128 kb/s
Channel(s) : 2 channels
Channel layout : L R
Sampling rate : 44.1 kHz
Frame rate : 43.066 FPS (1024 SPF)
Compression mode : Lossy
Stream size : 40.1 MiB (6%)
Default : Yes
Alternate group : 1
Скриншоты:


Все одноименные релизы в Клубе
Время раздачи: 24/7 (до появления первых 3-5 скачавших)

Другие торренты по теме:

  • Криминальное наследство (2014) WEBRip [H.264 / 1080p-LQ] (сезон 1, серии 1-4 из 4)
  • Криминальное наследство (2015) SATRip (серии 1-4 из 4) скачать через торрент бесплатно
  • Криминальное наследство (2015) SATRip [H.264] (серии 1-4 из 4) скачать через торрент бесплатно
  • Криминальное наследство (2015) HDTVRip [H.264] (серии 1-4 из 4) скачать через торрент бесплатно
  • Криминальное наследство (2015) HDTVRip [H.264 / 720p] (серии 1-4 из 4) скачать через торрент бесплатно
  • Криминальное наследство (2015) HDTV [H.264 / 1080i] (серии 1-4 из 4) скачать через торрент бесплатно

  • Посетители, находящиеся в группе Гости, не могут оставлять комментарии в данной новости.