Подписывайся на наш канал в Telegram https://t.me/torrentok и получи доступ к торрентам без ограничений!

Веское основание для убийства (2009) WEBRip [H.264] (серии 1-4 из 4) [MP4|1920x1080] торрент скачать бесплатно

Веское основание для убийства (2009) WEBRip [H.264] (серии 1-4 из 4) [MP4|1920x1080]Производство: Украина | Новая студия
Жанр: Детектив
Режиссер: Марк Горобец
Актеры: Андрей Мерзликин, Светлана Устинова, Ян Цапник, Владимир Горянский, Инна Мирошниченко, Вадим Утенков, Дарья Трегубова, Алексей Смолка, Майя Кузьмишина, Елена Кривда

Описание

Судьба Саши сложилась на редкость несчастливо. Они с братом рано остались одни и попали в детдом. Цыганская семья выкупила Сашу оттуда, ей приходится расстаться с братом. После тяжелых испытаний, выпавших на ее долю, Саша попадает в спецшколу таинственной структуры, готовящую киллеров. Наставница Саши Елена Сергеевна обещает ей разыскать брата, но только с одним условием: Сашино задание - устранить некоего предпринимателя Константина Самулевича...

Возраст: 16+ (зрителям, достигшим 16 лет)
Продолжительность: ~00: 41: 00 серия
Качество видео: WEBRip
Перевод: Не требуется (русский)
Субтитры: Отсутствуют
Видео: AVC/H.264, 1920x1080, ~1633 kbps
Аудио: AAC, 2 ch, 128 kbps - русский
General
Complete name : D: Веское_основание_для_убийства_2009_1080p_1-4.mp4
Format : MPEG-4
Format profile : Base Media
Codec ID : isom (isom/iso2/avc1/mp41)
File size : 2.08 GiB
Duration : 2 h 48 min
Overall bit rate : 1 767 kb/s
Writing application : Lavf58.20.100
Video
ID : 1
Format : AVC
Format/Info : Advanced Video Codec
Format profile : [email protected]
Format settings : CABAC/3 Ref Frames
Format settings, CABAC : Yes
Format settings, ReFrames : 3 frames
Codec ID : avc1
Codec ID/Info : Advanced Video Coding
Duration : 2 h 48 min
Duration_FirstFrame : -40 ms
Bit rate : 1 633 kb/s
Width : 1 920 pixels
Height : 1 080 pixels
Display aspect ratio : 16: 9
Frame rate mode : Variable
Frame rate : 25.000 FPS
Minimum frame rate : 25.000 FPS
Maximum frame rate : 25.014 FPS
Color space : YUV
Chroma subsampling : 4: 2: 0
Bit depth : 8 bits
Scan type : Progressive
Bits/(Pixel*Frame) : 0.031
Stream size : 1.92 GiB (92%)
Writing library : x264 core 155 r2901 7d0ff22
Color range : Limited
Color primaries : BT.709
Transfer characteristics : BT.709
Matrix coefficients : BT.709
Codec configuration box : avcC
Audio
ID : 2
Format : AAC LC
Format/Info : Advanced Audio Codec Low Complexity
Codec ID : mp4a-40-2
Duration : 2 h 48 min
Bit rate mode : Constant
Bit rate : 128 kb/s
Channel(s) : 2 channels
Channel layout : L R
Sampling rate : 44.1 kHz
Frame rate : 43.066 FPS (1024 SPF)
Compression mode : Lossy
Stream size : 154 MiB (7%)
Default : Yes
Alternate group : 1
Скриншоты:


Все одноименные релизы в Клубе
Время раздачи: 24/7 (до появления первых 3-5 скачавших)

Другие торренты по теме:

  • Веское основание для убийства (2009) WEBRip [H.264] (серии 1-2 из 2)

  • Посетители, находящиеся в группе Гости, не могут оставлять комментарии в данной новости.