Подписывайся на наш канал в Telegram https://t.me/torrentok и получи доступ к торрентам без ограничений!

Я хочу туфли (2014) WEBRip [H.264] [MP4|1920x780] торрент скачать бесплатно

Я хочу туфли (2014) WEBRip [H.264] [MP4|1920x780]Производство: Россия/Киностудия Дмитрия Санина, Реабилитационный центр Три сестры
Жанр: Мелодрама
Режиссер: Анна Симакова
Актеры: Елизавета Новикова, Анна Симакова, Любовь Николаева, Дмитрий Кухно, Илья Беспалый, Андрей Мельников, Дмитрий Санин, Евгения Ленева, Валерий Гришин, Андрей Кашубский

Описание

После автомобильной аварии физические возможности современной молодой женщины Веры несколько ограничены, что, впрочем, не мешает ей вести полноценный образ жизни – работать, водить машину и попадать в разнообразные переделки. Любовь к мужчине, преданность делу и упертый чиновник однажды подталкивают Веру к нарушению закона...

Возраст: 16+ (зрителям, достигшим 16 лет)
Продолжительность: 01: 33: 25
Качество видео: WEBRip
Перевод: Не требуется (русский)
Субтитры: Отсутствуют
Видео: AVC/H.264, 1920x780, ~1333 Kbps
Аудио: AAC, 2 ch, 126 Kbps
Общее
Полное имя : G: Я хочу туфли (2014).mp4
Формат : MPEG-4
Профиль формата : Base Media
Идентификатор кодека : isom (isom/iso2/avc1/mp41)
Размер файла : 977 Мбайт
Продолжительность : 1 ч. 33 м.
Режим общего битрейта : Переменный
Общий поток : 1 462 Кбит/сек
Дата кодирования : UTC 2017-01-02 09: 49: 55
Дата пометки : UTC 2017-01-02 09: 49: 55
Видео
Идентификатор : 1
Формат : AVC
Формат/Информация : Advanced Video Codec
Профиль формата : [email protected]
Настройки формата : CABAC/3 Ref Frames
Параметр CABAC формата : Да
Параметр RefFrames формата : 3 кадра
Идентификатор кодека : avc1
Идентификатор кодека/Информация : Advanced Video Coding
Продолжительность : 1 ч. 33 м.
Битрейт : 1 333 Кбит/сек
Ширина : 1 920 пикселей
Высота : 780 пикселей
Соотношение сторон : 2, 462
Режим частоты кадров : Постоянный
Частота кадров : 25, 000 кадров/сек
Цветовое пространство : YUV
Субдискретизация насыщенности : 4: 2: 0
Битовая глубина : 8 бит
Тип развёртки : Прогрессивная
Бит/(Пиксели*Кадры) : 0.036
Размер потока : 891 Мбайт (91%)
Дата кодирования : UTC 2017-01-02 09: 49: 55
Дата пометки : UTC 2017-01-02 09: 49: 55
Цветовой диапазон : Limited
Основные цвета : BT.709
Характеристики трансфера : BT.709
Коэффициенты матрицы : BT.709
Codec configuration box : avcC
Аудио
Идентификатор : 2
Формат : AAC LC
Формат/Информация : Advanced Audio Codec Low Complexity
Идентификатор кодека : mp4a-40-2
Продолжительность : 1 ч. 33 м.
Вид битрейта : Переменный
Битрейт : 126 Кбит/сек
Каналы : 2 канала
Channel layout : L R
Частота : 44, 1 КГц
Частота кадров : 43, 066 кадра/сек (1024 SPF)
Метод сжатия : С потерями
Размер потока : 83, 9 Мбайт (9%)
Default : Да
Alternate group : 1
Дата кодирования : UTC 2017-01-02 10: 03: 47
Дата пометки : UTC 2017-01-02 10: 03: 47
Скриншоты:


Все одноименные релизы в Клубе
Время раздачи: 24/7 (круглосуточно) (до появления первых 3-5 скачавших)

Другие торренты по теме:

  • Литл Бэйби Бам - Кем я хочу стать (2020) [MP3|192-320 Kbps]<Детские песни>
  • Хочу вашего мужа (1992) DVDRip [H.264]
  • Хочу к Меладзе. Выпуск 4 (2014.09.27) SATRip
  • Хочу к Меладзе. Выпуск 5 (2014.10.04) SATRip скачать через торрент бесплатно
  • Хочу к Меладзе. Выпуск 6 (2014.10.11) SATRip скачать через торрент бесплатно
  • Хочу к Меладзе. Выпуск 7 (2014.10.18) SATRip
  • Хочу. Не могу / Premature (2014) BDRip [1080p] скачать через торрент бесплатно
  • Хочу к Меладзе. Выпуск 8 (2014.10.25) SATRip скачать через торрент бесплатно

  • Посетители, находящиеся в группе Гости, не могут оставлять комментарии в данной новости.