Подписывайся на наш канал в Telegram https://t.me/torrentok и получи доступ к торрентам без ограничений!

Однажды в Чукурова / Bir Zamanlar Cukurova (2018) WEB-DLRip [H.264] (сезон 1, серии 1-35 из 35) Гайдаржи, Котова [MP4|1920x1080] торрент скачать бесплатно

Однажды в Чукурова / Bir Zamanlar Cukurova (2018) WEB-DLRip [H.264] (сезон 1, серии 1-35 из 35) Гайдаржи, Котова [MP4|1920x1080]Производство: Турция/TimsB
Жанр: Драма
Режиссер: Фарук Тебер, Мурат Сарачоглу
Актеры: Мурат Уналмыш, Хилаль Алтынбилек, Угур Гюнеш, Вахиде Перчин, Сибель Ташчыоглу, Бюлент Полат, Тургай Айдын

Описание

Сериал является ремейком американского фильма Дни жатвы/Days of Heaven (1978). Действия в сериале происходят с 70-х годов прошлого века по сей день. Зюлейха выходит замуж за Демира, чтобы ее любимый мог жить, ведь он убил человека ради любви, и теперь им пришлось пуститься в бега. Однако в сериале ведется речь не только о двух разлученных влюбленных, но и о битве Хюнкар, которая расправила крылья, чтобы защитить своего единственного сына Демира. А Демир готов на все, чтобы удержать рядом с собой любимую женщину – Зюлейху. На бескрайних просторах Чукурова влюбленным придется пройти через суровые испытания...

Продолжительность: ~02: 30: 00 серия
Качество видео: WEB-DLRip
Перевод: Одноголосый любительский (А. Гайдаржи, И. Котова)
Язык озвучки: Русский
Субтитры: отсутствуют
Видео: AVC/H.264, 1920x1080, ~1680 kbps
Аудио: AAC, 2 ch, 129 kbps
General
Complete name : J: Chukurova.s01.WEB-DLRip1080pChukurova.s01.e07.WEB-DLRip1080p.mp4
Format : MPEG-4
Format profile : Base Media
Codec ID : isom (isom/avc1/iso6)
File size : 1.85 GiB
Duration : 2 h 38 min
Overall bit rate mode : Variable
Overall bit rate : 1 668 kb/s
Encoded date : UTC 2020-07-08 19: 27: 03
Tagged date : UTC 2020-07-08 19: 27: 03
Writing application : My MP4Box GUI 0.6.0.6 http://my-mp4box-gui.zymichost.com
IsTruncated : Yes
Video
ID : 1
Format : AVC
Format/Info : Advanced Video Codec
Format profile : [email protected]
Format settings : CABAC/3 Ref Frames
Format settings, CABAC : Yes
Format settings, Reference fra : 3 frames
Codec ID : avc1
Codec ID/Info : Advanced Video Coding
Duration : 2 h 38 min
Bit rate : 1 680 kb/s
Maximum bit rate : 7 555 kb/s
Width : 1 920 pixels
Height : 1 080 pixels
Display aspect ratio : 16: 9
Frame rate mode : Constant
Frame rate : 25.000 FPS
Color space : YUV
Chroma subsampling : 4: 2: 0
Bit depth : 8 bits
Scan type : Progressive
Bits/(Pixel*Frame) : 0.032
Stream size : 1.86 GiB
Title : 7_track1.h264
Writing library : x264 core 155 r2901 7d0ff22
Encoded date : UTC 2020-07-08 19: 27: 03
Tagged date : UTC 2020-07-08 19: 28: 59
Color range : Limited
Color primaries : BT.709
Transfer characteristics : BT.709
Matrix coefficients : BT.709
Codec configuration box : avcC
Audio
ID : 2
Format : AAC LC
Format/Info : Advanced Audio Codec Low Complexity
Codec ID : mp4a-40-2
Duration : 2 h 38 min
Bit rate mode : Variable
Bit rate : 129 kb/s
Maximum bit rate : 144 kb/s
Channel(s) : 2 channels
Channel layout : L R
Sampling rate : 44.1 kHz
Frame rate : 43.066 FPS (1024 SPF)
Compression mode : Lossy
Stream size : 147 MiB (8%)
Title : Chukurova.s01.e07.2018.L1.WEBRip720p_track2.aac
Encoded date : UTC 2020-07-08 19: 28: 32
Tagged date : UTC 2020-07-08 19: 28: 59

Другие торренты по теме:

  • Однажды на свидании / Its A Date (2013) HDTVRip (Сезон 1, серии 1-4 из 8) [datynet & selena] (обновляемая)
  • Однажды в России. Выпуск 1 (2014.09.28) SATRip
  • Однажды в сказке / В Некотором Царстве / Once Upon A Time (2014) HDTVRip [сезон 4, серия 1 из ] LevshaFilm
  • Однажды в Сказке / В Некотором Царстве / Once Upon a Time (2013) WEB-DLRip [сезон 4, серии 1 из ] To4ka (обновляемая) скачать через торрент бесплатно
  • Однажды в России. Выпуск 2 (2014.10.05) SATRip скачать через торрент бесплатно
  • Однажды в России. Выпуск 2 (2014.10.05) WEB-DL [H.264 / 720p-LQ] [hand made 50fps] скачать через торрент бесплатно
  • Однажды в России. Выпуск 1 (2014.09.28) WEB-DL [H.264 / 720p-LQ] [hand made 50fps] скачать через торрент бесплатно
  • Однажды в России. Выпуск 3 (2014.10.12) WEB-DL [H.264 / 720p] [hand made 50fps]

  • Посетители, находящиеся в группе Гости, не могут оставлять комментарии в данной новости.