Подписывайся на наш канал в Telegram https://t.me/torrentok и получи доступ к торрентам без ограничений!

Я шагаю по Москве (1963) WEBRip [H.264] [MP4|1920x816] торрент скачать бесплатно

Я шагаю по Москве (1963) WEBRip [H.264] [MP4|1920x816]Производство: СССР/Мосфильм
Жанр: Комедия, мелодрама
Режиссер: Георгий Данелия
Актеры: Никита Михалков, Алексей Локтев, Галина Польских, Евгений Стеблов, Любовь Соколова, Ирина Титова, Ирина Мирошниченко, Владимир Басов ст., Ролан Быков, Лев Дуров, Арина Алейникова, Валентина Ананьина

Описание

Володя работает монтажником в Сибири, в Москве он проездом — его небольшой рассказ, опубликованный в журнале Юность вызвал интерес у писателя Воронина, пригласившего Володю на важный разговор. В метро он знакомится с Колей — молодым задорным пареньком, возвращающимся с ночной смены. Володя собирается остановиться у своих друзей, но не знает точно, где находится нужный переулок, Коля предлагает его проводить...

Возраст: 12+ (зрителям, достигшим 12 лет)
Продолжительность: 01: 13: 38
Качество видео: WEBRip
Перевод: Не требуется (русский)
Субтитры: Отсутствуют
Видео: AVC/H.264, 1920x816 (2.35: 1), ~4300 Kbps
Аудио: AAC, 2 ch, 229 Kbps
Общее
Полное имя : G: Я шагаю по Москве (1963).mp4
Формат : MPEG-4
Профиль формата : Base Media
Идентификатор кодека : isom (isom/iso2/avc1/mp41)
Размер файла : 2, 33 Гбайт
Продолжительность : 1 ч. 13 м.
Общий поток : 4 532 Кбит/сек
Программа кодирования : Lavf58.29.100
Видео
Идентификатор : 1
Формат : AVC
Формат/Информация : Advanced Video Codec
Профиль формата : [email protected]
Настройки формата : CABAC/5 Ref Frames
Параметр CABAC формата : Да
Параметр RefFrames формата : 5 кадров
Идентификатор кодека : avc1
Идентификатор кодека/Информация : Advanced Video Coding
Продолжительность : 1 ч. 13 м.
Битрейт : 4 297 Кбит/сек
Номинальный битрейт : 5 000 Кбит/сек
Ширина : 1 920 пикселей
Высота : 816 пикселей
Соотношение сторон : 2, 35: 1
Режим частоты кадров : Постоянный
Частота кадров : 25, 000 кадров/сек
Цветовое пространство : YUV
Субдискретизация насыщенности : 4: 2: 0
Битовая глубина : 8 бит
Тип развёртки : Прогрессивная
Бит/(Пиксели*Кадры) : 0.110
Размер потока : 2, 21 Гбайт (95%)
Библиотека кодирования : x264 core 148 r2721 72d53ab
Настройки программы : cabac=1/ref=5/deblock=1: 0: 0/analyse=0x3: 0x133/me=umh/subme=10/psy=1/psy_rd=1.00: 0.00/mixed_ref=1/me_range=24/chroma_me=1/trellis=2/8x8dct=1/cqm=0/deadzone=21, 11/fast_pskip=1/chroma_qp_offset=-2/threads=25/lookahead_threads=4/sliced_threads=0/nr=0/decimate=1/interlaced=0/bluray_compat=0/constrained_intra=0/bframes=8/b_pyramid=2/b_adapt=2/b_bias=0/direct=3/weightb=1/open_gop=0/weightp=2/keyint=100/keyint_min=50/scenecut=40/intra_refresh=0/rc_lookahead=60/rc=2pass/mbtree=1/bitrate=5000/ratetol=1.0/qcomp=0.60/qpmin=0/qpmax=69/qpstep=4/cplxblur=20.0/qblur=0.5/vbv_maxrate=5500/vbv_bufsize=920/nal_hrd=none/filler=0/ip_ratio=1.40/aq=1: 1.00
Codec configuration box : avcC
Аудио
Идентификатор : 2
Формат : AAC LC
Формат/Информация : Advanced Audio Codec Low Complexity
Идентификатор кодека : mp4a-40-2
Продолжительность : 1 ч. 13 м.
Duration_LastFrame : -11 мс.
Вид битрейта : Постоянный
Битрейт : 229 Кбит/сек
Каналы : 2 канала
Channel layout : L R
Частота : 48, 0 КГц
Частота кадров : 46, 875 кадров/сек (1024 SPF)
Метод сжатия : С потерями
Размер потока : 121 Мбайт (5%)
Default : Да
Alternate group : 1
Скриншоты:


Все одноименные релизы в Клубе
Время раздачи: 24/7 (круглосуточно) (до появления первых 3-5 скачавших)

Другие торренты по теме:

  • Я шагаю по Москве (1963) HDDVDRip [H.264] [MP4|1024x440]
  • Я шагаю по Москве (1963) WEBRip [H.264]

  • Посетители, находящиеся в группе Гости, не могут оставлять комментарии в данной новости.