Подписывайся на наш канал в Telegram https://t.me/torrentok и получи доступ к торрентам без ограничений!

Грейхаунд / Greyhound (2020) WEB-DLRip [H.264] [MP4|1920x802] торрент скачать бесплатно

Грейхаунд / Greyhound (2020) WEB-DLRip [H.264] [MP4|1920x802]Производство: Китай, Канада, США/Columbia Pictures, Stage 6 Films, Zhengfu Pictures
Жанр: военный, боевик, история, биография
Режиссер: Аарон Шнайдер
Актеры: Том Хэнкс, Стивен Грэм, Элизабет Шу, Майкл Бенц, Роб Морган, Дэвид Мальдонадо, Джими Стэнтон, Matt Helm, Том Бриттни, Мануэль Рульфо

Описание

1942 год. Новым капитаном эсминца ВМС США Грейхаунд становится морской офицер Эрнст Краузе, который до этого еще не участвовал в военных действиях.

Рейтинг MPAA: PG-13 (детям до 13 лет просмотр нежелателен)
Премьера в мире: 10 июля 2020
Продолжительность: 01: 31: 42
Качество видео: WEB-DLRip
Перевод : Многоголосый закадровый, любительский (Hamsterstudio)
Субтитры : Русские (Forced)
Видео: AVC/H.264, 1920x802, ~2500 kbps
Аудио: AAC, 2 ch, 64 Kbps - русскийОбщее
Полное имя : Greyhound.2020.WEB-DL.1080p.mp4
Формат : MPEG-4
Профиль формата : Base Media
Идентификатор кодека : isom (isom/iso2/avc1/mp41)
Размер файла : 1, 64 Гбайт
Продолжительность : 1 ч. 31 м.
Режим общего битрейта : Переменный
Общий поток : 2566 Кбит/сек
HDVideo : Yes
Видео
Идентификатор : 1
Формат : AVC
Формат/Информация : Advanced Video Codec
Профиль формата : [email protected]
Настройки формата : CABAC/4 Ref Frames
Параметр CABAC формата : Да
Параметр RefFrames формата : 4 кадра
Идентификатор кодека : avc1
Идентификатор кодека/Информация : Advanced Video Coding
Продолжительность : 1 ч. 31 м.
Битрейт : 2500 Кбит/сек
Ширина : 1920 пикселей
Высота : 802 пикселя
Соотношение сторон : 2, 40: 1
Режим частоты кадров : Переменный
Частота кадров : 23, 976 (23976/1000) кадра/сек
Минимальная частота кадров : 23, 952 кадра/сек
Максимальная частота кадров : 24, 000 кадра/сек
Цветовое пространство : YUV
Субдискретизация насыщенности : 4: 2: 0
Битовая глубина : 8 бит
Тип развёртки : Прогрессивная
Бит/(Пиксели*Кадры) : 0.068
Размер потока : 1, 60 Гбайт (97%)
Библиотека кодирования : x264 core 152 r2851M ba24899
Настройки программы : cabac=1/ref=4/deblock=1: -1: -1/analyse=0x3: 0x113/me=umh/subme=9/psy=1/psy_rd=1.00: 0.15/mixed_ref=1/me_range=24/chroma_me=1/trellis=2/8x8dct=1/cqm=0/deadzone=21, 11/fast_pskip=1/chroma_qp_offset=-3/threads=16/lookahead_threads=4/sliced_threads=0/nr=0/decimate=1/interlaced=0/bluray_compat=0/constrained_intra=0/bframes=3/b_pyramid=2/b_adapt=2/b_bias=0/direct=3/weightb=1/open_gop=0/weightp=2/keyint=250/keyint_min=25/scenecut=40/intra_refresh=0/rc_lookahead=50/rc=2pass/mbtree=1/bitrate=2500/ratetol=1.0/qcomp=0.60/qpmin=0/qpmax=69/qpstep=4/cplxblur=20.0/qblur=0.5/vbv_maxrate=31250/vbv_bufsize=31250/nal_hrd=none/filler=0/ip_ratio=1.40/aq=3: 1.00
Codec configuration box : avcC
Аудио
Идентификатор : 2
Формат : AAC LC SBR
Формат/Информация : Advanced Audio Codec Low Complexity with Spectral Band Replication
Коммерческое название : HE-AAC
Настройки формата : Explicit
Идентификатор кодека : mp4a-40-2
Продолжительность : 1 ч. 31 м.
Вид битрейта : Постоянный
Битрейт : 64 Кбит/сек
Каналы : 2 канала
Channel layout : L R
Частота : 48, 0 КГц
Частота кадров : 23, 438 кадра/сек (2048 SPF)
Метод сжатия : С потерями
Размер потока : 41, 1 Мбайт (2%)
Язык : Russian
Default : Да
AlternateGroup/String : 1
Текст
Идентификатор : 3
Формат : Timed Text
Режим смешивания : sbtl
Идентификатор кодека : tx3g
Продолжительность : 1 ч. 31 м.
Вид битрейта : Переменный
Битрейт : 0 бит/сек
Размер потока : 235 байт (0%)
Заголовок : Forced/Forced
Язык : Russian
Default : Да
Forced : Нет
AlternateGroup/String : 3Скриншоты:

Все одноименные релизы в Клубе
Время раздачи: 24/7 (до появления первых 3-5 скачавших)

Другие торренты по теме:

  • Грейхаунд / Greyhound (2020) WEB-DLRip [MVO]
  • Грейхаунд / Greyhound (2020) WEB-DL [H.265 / 2160p] [4K, SDR, 10-bit] [MVO]
  • Грейхаунд / Greyhound (2020) WEB-DL [H.265 / 2160p] [4K, HDR, 10-bit] [MVO]
  • Грейхаунд / Greyhound (2020) WEB-DL [H.264 / 1080p] [MVO]
  • Грейхаунд / Greyhound (2020) WEB-DLRip [MVO]
  • Грейхаунд / Greyhound (2020) WEB-DL [H.264 / 1080p-LQ] [MVO]
  • Грейхаунд / Greyhound (2020) WEB-DL [H.265 / 2160p] [4K, HDR, 10-bit] [EN / RU, EN, FR, GER etc. Sub]
  • Грейхаунд / Greyhound (2020) WEB-DL [H.264 / 1080p] [EN / RU, EN, FR, GER etc. Sub]

  • Посетители, находящиеся в группе Гости, не могут оставлять комментарии в данной новости.