Подписывайся на наш канал в Telegram https://t.me/torrentok и получи доступ к торрентам без ограничений!

Академия «Амбрелла» / The Umbrella Academy (2020) WEB-DL [H.264] (сезон 2, серии 1-10 из 10) [MP4|1920x1080] Пифагор торрент скачать бесплатно

Академия «Амбрелла» / The Umbrella Academy (2020) WEB-DL [H.264] (сезон 2, серии 1-10 из 10) [MP4|1920x1080] ПифагорПроизводство: США, Dark Horse Entertainment, Netflix, Universal Cable Productions
Жанр: фантастика, фэнтези, боевик, драма, комедия, приключения
Режиссер: Эллен Кёрас, Стивен Серджик, Джереми Уэбб
Актеры: Эллен Пейдж, Том Хоппер, Дэвид Кастанеда, Эмми Рэвер-Лэмпман, Роберт Шиэн, Эйдан Галлахер, Мэри Джей Блайдж, Камерон Бриттон, Джон Магаро, Адам Годли и др.

Описание

Расформированная группа супергероев воссоединяется после смерти своего приемного отца, который готовил их к спасению мира от неизвестной угрозы. Вместе они должны продолжить его дело.

Дата мировой премьеры: 31.07.2020
Дата премьеры в России: 31.07.2020
Продолжительность: ~00: 48: 00 серия
Качество видео: WEB-DL
Перевод: Дублированный (Пифагор)
Язык озвучки: Русский
Субтитры: Отсутствуют
Видео: AVC/H.264, 1920x1080, ~6450 Kbps
Аудио: E-AC3, 6 ch, 640 Kbps
General
Complete name : ..S02.E01 The Umbrella Academy - Right Back Where We Started.mp4
Format : MPEG-4
Format profile : Base Media
Codec ID : isom (isom/iso2/avc1/mp41)
File size : 2.33 GiB
Duration : 47 min 0 s
Overall bit rate : 7 097 kb/s
Writing application : FlixGrab Plus
Video
ID : 1
Format : AVC
Format/Info : Advanced Video Codec
Format profile : [email protected]
Format settings : CABAC/3 Ref Frames
Format settings, CABAC : Yes
Format settings, Reference : 3 frames
Codec ID : avc1
Codec ID/Info : Advanced Video Coding
Duration : 47 min 0 s
Bit rate : 6 451 kb/s
Width : 1 920 pixels
Height : 1 080 pixels
Display aspect ratio : 16: 9
Frame rate mode : Constant
Frame rate : 23.976 FPS
Color space : YUV
Chroma subsampling : 4: 2: 0
Bit depth : 8 bits
Scan type : Progressive
Bits/(Pixel*Frame) : 0.130
Stream size : 2.12 GiB (91%)
Codec configuration box : avcC
Audio
ID : 2
Format : E-AC-3
Format/Info : Enhanced AC-3
Commercial name : Dolby Digital Plus
Codec ID : ec-3
Duration : 47 min 0 s
Bit rate mode : Constant
Bit rate : 640 kb/s
Channel(s) : 6 channels
Channel layout : L R C LFE Ls Rs
Sampling rate : 48.0 kHz
Frame rate : 31.250 FPS (1536 SPF)
Compression mode : Lossy
Stream size : 215 MiB (9%)
Language : Russian
Service kind : Complete Main
Default : Yes
Alternate group : 1
Скриншоты:


Все одноименные релизы в Клубе
Время раздачи: 24/7 (до появления первых 3-5 скачавших)

Другие торренты по теме:

  • Академия Амбрелла / The Umbrella Academy (2020) WEB-DLRip [H.264 / 1080p-LQ] (сезон 2, серии 1-10 из 10) Пифагор
  • Академия Амбрелла / The Umbrella Academy (2019) WEB-DLRip [H.264] (сезон 1, серии 1-10 из 10) Пифагор
  • Академия Амбрелла / The Umbrella Academy (2020) WEB-DLRip [H.264] (сезон 2, серии 1-10 из 10) Пифагор
  • Академия «Амбрелла» / The Umbrella Academy (2019) WEB-DLRip (сезон 1, серии 1-10 из 10) Пифагор
  • Академия Амбрелла / The Umbrella Academy (2019) WEBRip [H.264 / 1080p-LQ] (сезон 1, серии 1 из 10) TVShows (обновляемая)
  • Академия «Амбрелла» / The Umbrella Academy (2019) WEB-DLRip [H.264 / 1080p-LQ] (сезон 1, серии 1-10 из 10)
  • Академия Амбрелла / The Umbrella Academy (2020) WEBRip [H.264 / 720p-LQ] (сезон 2, серии 1-10 из 10) LakeFilms [AD]
  • Академия Амбрелла / The Umbrella Academy (2020) WEBRip [H.264 / 1080p-LQ] (сезон 2, серии 1-10 из 10) LakeFilms [AD]

  • Посетители, находящиеся в группе Гости, не могут оставлять комментарии в данной новости.