Подписывайся на наш канал в Telegram https://t.me/torrentok и получи доступ к торрентам без ограничений!

Игра слова / GameFace (2017) WEB-DLRip [H.264] (сезон 1, серии 1-6 из 6) GreenРай Studio [MP4|1920x1080] [AD] торрент скачать бесплатно

Игра слова / GameFace (2017) WEB-DLRip [H.264] (сезон 1, серии 1-6 из 6) GreenРай Studio [MP4|1920x1080] [AD]Производство: Великобритная, Objective Productions
Жанр: комедия
Режиссер: Эндрю Чаплин
Актеры: Рошин Конати, Дэмиен Молони, Дилан Эдвардс, Дастин Демри-Бёрнс, Caroline Ginty, Карл Теобалд, Нина Туссен-Вайт, Полин Маклин, Элиот Солт, Наана Агьей Ампаду

Описание

Марселла — женщина, которая пытается стать актрисой. Ей трудно найти какую-нибудь работу, она не может найти любовь, потому что рассталась со своим парнем, у нее серьезные долги и в настоящее время вынуждена снимать жилье. В то же время она проводит большую часть своего времени со своим лайфкоучем, пытаясь найти решение своих проблемm, и со своим инструктором по вождению.


Релиз от: GreenРай Studio
Продолжительность: ~00: 23: 00
Качество видео: WEB-DLRip
Перевод: Многоголосый любительский (GreenРай Studio)
Реклама: Рекламный ролик букмекерской конторы в начале, наложенный логотип в углу в конце.
Видео: AVC/H.264, 1920x1080, ~2815 kbps
Аудио: AAC, 2 ch, 152 kbps
General
Complete name : \GameFace.S01.WEB-DL.1080pGameFace.S01E01.WEB-DL.1080p.mp4
Format : MPEG-4
Format profile : Base Media
Codec ID : isom (isom/iso2/avc1/mp41)
File size : 502 MiB
Duration : 23 min 51 s
Overall bit rate mode : Variable
Overall bit rate : 2 944 kb/s
Writing application : Lavf56.25.101
Video
ID : 1
Format : AVC
Format/Info : Advanced Video Codec
Format profile : [email protected]
Format settings : CABAC/4 Ref Frames
Format settings, CABAC : Yes
Format settings, Reference fra : 4 frames
Codec ID : avc1
Codec ID/Info : Advanced Video Coding
Duration : 23 min 50 s
Bit rate : 2 816 kb/s
Width : 1 920 pixels
Height : 1 080 pixels
Display aspect ratio : 16: 9
Frame rate mode : Constant
Frame rate : 25.000 FPS
Color space : YUV
Chroma subsampling : 4: 2: 0
Bit depth : 8 bits
Scan type : Progressive
Bits/(Pixel*Frame) : 0.054
Stream size : 475 MiB (95%)
Writing library : x264 core 146
Encoding settings : cabac=1/ref=2/deblock=1: 0: 0/analyse=0x3: 0x113/me=hex/subme=6/psy=1/psy_rd=1.00: 0.00/mixed_ref=1/me_range=16/chroma_me=1/trellis=1/8x8dct=1/cqm=0/deadzone=21, 11/fast_pskip=1/chroma_qp_offset=-2/threads=48/lookahead_threads=8/sliced_threads=0/nr=0/decimate=1/interlaced=0/bluray_compat=0/constrained_intra=0/bframes=3/b_pyramid=2/b_adapt=1/b_bias=0/direct=1/weightb=1/open_gop=0/weightp=1/keyint=50/keyint_min=5/scenecut=40/intra_refresh=0/rc_lookahead=30/rc=2pass/mbtree=1/bitrate=2816/ratetol=97.5/qcomp=0.60/qpmin=0/qpmax=69/qpstep=4/cplxblur=20.0/qblur=0.5/ip_ratio=1.40/aq=1: 1.00
Codec configuration box : avcC
Audio
ID : 2
Format : AAC LC
Format/Info : Advanced Audio Codec Low Complexity
Codec ID : mp4a-40-2
Duration : 23 min 51 s
Duration_LastFrame : -23 ms
Bit rate mode : Variable
Bit rate : 152 kb/s
Maximum bit rate : 192 kb/s
Channel(s) : 2 channels
Channel layout : L R
Sampling rate : 44.1 kHz
Frame rate : 43.066 FPS (1024 SPF)
Compression mode : Lossy
Stream size : 25.9 MiB (5%)
Default : Yes
Alternate group : 1
Скриншоты:


Все одноименные релизы в Клубе
Время раздачи: 24/7 (до появления первых 3-5 скачавших)

Другие торренты по теме:

  • Русская рулетка - игра в слова 1.0 [Ru / En] Авторская раздача скачать через торрент бесплатно

  • Посетители, находящиеся в группе Гости, не могут оставлять комментарии в данной новости.