Подписывайся на наш канал в Telegram https://t.me/torrentok и получи доступ к торрентам без ограничений!

Следствие вели... (13.09.2020) "Беременна и очень опасна!" WEBRip [H.264] [MP4|1920x1080] торрент скачать бесплатно

Следствие вели... (13.09.2020) Беременна и очень опасна! WEBRip [H.264] [MP4|1920x1080]Производство: Россия | Телекомпания НТВ
Жанр: Документальный, криминал, расследование
Ведущий: Леонид Каневский

Описание

1989 год, Ленинград. Найдена убитой пожилая женщина, похищены ценности. Расследование заходит в тупик. Тем временем история получает продолжение в Волгограде, где неизвестный совершает жестокие нападения и убийства. Тогда никто не знал: в этом деле удивительным образом переплелись три линии: деньги, кровь и отвергнутая любовь.


Возраст: 16+ (зрителям, достигшим 16 лет)
Дата российской премьеры: 13 сентября 2020
Продолжительность: 00: 44: 05
Качество видео: WEBRip
Субтитры: Отсутствуют
Видео: AVC/H.264, 1920x1080, ~3538 kbps
Аудио: AAC, 2 ch, 128 kbps - русский
General
Complete name : Sledstvie_Veli_13_09_2020_1080p.mp4
Format : MPEG-4
Format profile : Base Media
Codec ID : isom (isom/iso2/avc1/mp41)
File size : 1.13 GiB
Duration : 44 min 5 s
Overall bit rate : 3 672 kb/s
Writing application : Lavf58.20.100
Video
ID : 1
Format : AVC
Format/Info : Advanced Video Codec
Format profile : [email protected]
Format settings : CABAC/3 Ref Frames
Format settings, CABAC : Yes
Format settings, ReFrames : 3 frames
Codec ID : avc1
Codec ID/Info : Advanced Video Coding
Duration : 44 min 5 s
Duration_FirstFrame : -40 ms
Bit rate : 3 538 kb/s
Width : 1 920 pixels
Height : 1 080 pixels
Display aspect ratio : 16: 9
Frame rate mode : Variable
Frame rate : 25.000 FPS
Minimum frame rate : 25.000 FPS
Maximum frame rate : 25.014 FPS
Color space : YUV
Chroma subsampling : 4: 2: 0
Bit depth : 8 bits
Scan type : Progressive
Bits/(Pixel*Frame) : 0.068
Stream size : 1.09 GiB (96%)
Color range : Limited
Color primaries : BT.709
Transfer characteristics : BT.709
Matrix coefficients : BT.709
Codec configuration box : avcC
Audio
ID : 2
Format : AAC LC
Format/Info : Advanced Audio Codec Low Complexity
Codec ID : mp4a-40-2
Duration : 44 min 5 s
Bit rate mode : Constant
Bit rate : 128 kb/s
Channel(s) : 2 channels
Channel layout : L R
Sampling rate : 44.1 kHz
Frame rate : 43.066 FPS (1024 SPF)
Compression mode : Lossy
Stream size : 40.4 MiB (3%)
Default : Yes
Alternate group : 1
Скриншоты:


Все одноименные релизы в Клубе
Время раздачи: 24/7 (до появления первых 3-5 скачавших)

Другие торренты по теме:

  • Следствие вели... (06.09.2020) "Первобытные" WEBRip [H.264] [MP4|1920x1080]
  • Следствие вели... с Леонидом Каневским. Проклятый клад. Выпуск 278 (28.09.2014) SATRip
  • Следствие вели... с Леонидом Каневским. Убийство из милосердия. Выпуск 279 (11.10.2014) SATRip скачать через торрент бесплатно
  • Следствие вели... с Леонидом Каневским. Призрак на колесах. Выпуск 280 (18.10.2014) SATRip скачать через торрент бесплатно
  • Следствие вели... с Леонидом Каневским. Бумеранг. Выпуск 281 (25.10.2014) SATRip
  • Следствие вели... с Леонидом Каневским. Хозяин города. Выпуск 282 (01.11.2014) SATRip скачать через торрент бесплатно
  • Следствие вели... с Леонидом Каневским. Правдоруб. Выпуск 283 (08.11.2014) SATRip скачать через торрент бесплатно
  • Следствие вели... с Леонидом Каневским. Опасный попутчик. Выпуск 284 (15.11.2014) SATRip

  • Посетители, находящиеся в группе Гости, не могут оставлять комментарии в данной новости.