Подписывайся на наш канал в Telegram https://t.me/torrentok и получи доступ к торрентам без ограничений!

Правда о прививках (2006) DVDRip [H.265] [MP4|[email protected]] торрент скачать бесплатно

Правда о прививках (2006) DVDRip [H.265] [MP4|720@768x568]Производство: Россия/студия Слово
Жанр: Документальный
Режиссер: Галина Царева

Описание

Приводятся данные из документов для служебного пользования и прочие мало известные факты. Что такое поствакцинарный синдром, о резко возросшем уровне аутоимунных заболеваний, что такое выхолащивание иммунитета, о том что первые 18 месяцев жизни младенец вынужден бороться с привитыми ему болезнями и многом другом. В фильме рассказывается о страшных последствиях вакцин. Анализируется состав вакцин (соли ртути, формальдегид и алюминий), возможные поствакцинарные осложнения. Приводятся факты, позволяющие взглянуть на другую сторону прививочной медали. В нашей стране сложилась преступная традиция вакцинировать всех подряд, что приводит к плачевным результатам (здоровые дети стали уже казуистикой), 80-85% детей заболевших дифтерией, оказываются правильно и своевременно привитыми. Туберкулез тоже не хочет ликвидироваться, несмотря на прививки БЦЖ-вакциной.

Релиз от: SaneG_2
Продолжительность: 01: 44: 48
Качество видео: DVDRip
Субтитры: Отсутствуют
Видео: HEVC/H.265, [email protected], ~1166 Kbps
Аудио: AC3, 2 ch, 192 Kbps
Общее
Полное имя : E: Downloads Torrent! Галина ЦарёваПравда о прививках (Галина Царёва).2006 г.DVDRip.0.99GB.NNM-CLUB.HEVC+denoise.mp4
Формат : MPEG-4
Профиль формата : Base Media
Идентификатор кодека : isom (isom/iso2/mp41)
Размер файла : 1 022 Мбайт
Продолжительность : 1 ч. 44 м.
Общий поток : 1 363 Кбит/сек
Программа кодирования : XviD4PSP 7.0.501 DAILY
encoding_info : DVD MP4 Apple 1080p/MPEG2 X265 CRF-2P 21.0 Medium/AC3 COPY Быстрое
Видео
Идентификатор : 1
Формат : HEVC
Формат/Информация : High Efficiency Video Coding
Профиль формата : [email protected]@Main
Идентификатор кодека : hvc1
Идентификатор кодека/Информация : High Efficiency Video Coding
Продолжительность : 1 ч. 44 м.
Битрейт : 1 166 Кбит/сек
Ширина : 720 пикселей
Высота : 568 пикселей
Соотношение сторон : 4: 3
Режим частоты кадров : Постоянный
Частота кадров : 25, 000 кадров/сек
Цветовое пространство : YUV
Субдискретизация насыщенности : 4: 2: 0
Битовая глубина : 8 бит
Бит/(Пиксели*Кадры) : 0.114
Размер потока : 874 Мбайт (86%)
Библиотека кодирования : x265 3.1+7-147fb92c5ed5: Windowsclang 8.0.032 bit 8bit
Настройки программы : cpuid=1052671/frame-threads=9/wpp/no-pmode/no-pme/no-psnr/no-ssim/log-level=3/input-csp=1/input-res=720x568/interlace=0/total-frames=0/level-idc=0/high-tier=1/uhd-bd=0/ref=3/allow-non-conformance/no-repeat-t_heads/annexb/no-aud/no-hrd/info/hash=0/no-temporal-layers/open-gop/min-keyint=25/keyint=250/gop-lookahead=0/bframes=4/b-adapt=2/b-pyramid/bframe-bias=0/rc-lookahead=20/lookahead-slices=0/scenecut=40/radl=0/no-splice/no-intra-refresh/ctu=64/min-cu-size=8/no-rect/no-amp/max-tu-size=32/tu-inter-depth=1/tu-intra-depth=1/limit-tu=0/rdoq-level=0/dynamic-rd=0.00/no-ssim-rd/signhide/no-tskip/nr-intra=0/nr-inter=0/no-constrained-intra/strong-intra-smoothing/max-merge=3/limit-refs=1/no-limit-modes/me=1/subme=2/merange=57/temporal-mvp/no-hme/weightp/no-weightb/no-analyze-src-pics/deblock=0: 0/sao/no-sao-non-deblock/rd=3/early-skip/rskip/no-fast-intra/no-tskip-fast/no-cu-lossless/b-intra/no-splitrd-skip/rdpenalty=0/psy-rd=2.00/psy-rdoq=0.00/no-rd-refine/no-lossless/cbqpoffs=0/crqpoffs=0/rc=abr/bitrate=1165/qcomp=0.60/qpstep=4/stats-write=0/stats-read=1/cplxblur=20.0/qblur=0.5/ipratio=1.40/pbratio=1.30/aq-mode=2/aq-strength=1.00/cutree/zone-count=0/no-strict-cbr/qg-size=32/no-rc-grain/qpmax=69/qpmin=0/no-const-vbv/sar=255/sar-width/: /sar-height=16: 15/overscan=0/videoformat=5/range=0/colorprim=5/transfer=5/colormatrix=5/chromaloc=0/display-window=0cll=0, 0/min-luma=0/max-luma=255/log2-max-poc-lsb=8/vui-timing-info/vui-hrd-info/slices=1/no-opt-qp-pps/no-opt-ref-list-length-pps/no-multi-pass-opt-rps/scenecut-bias=0.05/no-opt-cu-delta-qp/no-aq-motion/no-hdr/no-hdr-opt/no-dhdr10-opt/no-idr-recovery-sei/analysis-reuse-level=5/scale-factor=0/refine-intra=0/refine-inter=0/refine-mv=0/refine-ctu-distortion=0/no-limit-sao/ctu-info=0/no-lowpass-dct/refine-analysis-type=-1/copy-pic=1/max-ausize-factor=1.0/no-dynamic-refine/no-single-sei/no-hevc-aq/no-svt/no-field/qp-adaptation-range=1.00
Цветовой диапазон : Limited
Основные цвета : BT.601 PAL
Характеристики трансфера : BT.470 System B/G
Коэффициенты матрицы : BT.470 System B/G
Menus : 3
Codec configuration box : hvcC
Аудио
Идентификатор : 2
Формат : AC-3
Формат/Информация : Audio Coding 3
Коммерческое название : Dolby Digital
Идентификатор кодека : ac-3
Продолжительность : 1 ч. 44 м.
Вид битрейта : Постоянный
Битрейт : 192 Кбит/сек
Каналы : 2 канала
Channel layout : L R
Частота : 48, 0 КГц
Частота кадров : 31, 250 кадров/сек (1536 SPF)
Метод сжатия : С потерями
Размер потока : 144 Мбайт (14%)
Язык : English
Service kind : Complete Main
Default : Да
Alternate group : 1
Menus : 3
Меню
Идентификатор : 3
Идентификатор кодека : text
Продолжительность : 1 ч. 44 м.
Язык : English
Menu For : 1, 2
00: 00: 00.000 : Глава 1
Скриншоты:


Все одноименные релизы в Клубе
Время раздачи: До появления первых 3-5 скачавших.

Другие торренты по теме:

  • Правда о кошках и собаках / The Truth About Cats & Dogs (1996) BDRip
  • Л. А. Сердобольская (сост.) | Правда о сектантстве. Сборник рассказов бывших сектантов (1962) [DJVU]
  • А. В. Козлов | Вся правда об Украинской повстанческой армии [УПА] (2014) [DJVU, PDF]
  • Дэн Ариели | Вся правда о неправде. Почему и как мы обманываем (2013) [FB2] скачать через торрент бесплатно
  • History Channel. Мифы и правда о Карле Великом / Karl der Grosse (Der Kampf um den Thron) (2013) HDTVRip [H.264 / 720p] (1-3 серия из 3)
  • Научный детектив. Правда о долларе (29.11.2014) SATRip
  • Линия защиты. Голая правда (2014.12.03) SATRip скачать через торрент бесплатно
  • Научный детектив. Правда о рубле (06.12.2014) SATRip

  • Посетители, находящиеся в группе Гости, не могут оставлять комментарии в данной новости.