Подписывайся на наш канал в Telegram https://t.me/torrentok и получи доступ к торрентам без ограничений!

Дама треф (2019) WEBRip [H.264] [MP4|1920x1080] (серии 1-2 из 2) торрент скачать бесплатно

Дама треф (2019) WEBRip [H.264] [MP4|1920x1080] (серии 1-2 из 2)Производство: Россия | NRG Film
Жанр: Детектив
Режиссер: Филипп Коршунов
Актеры: Андрей Чернышов, Екатерина Соломатина, Евгения Ахременко, Дмитрий Смирнов, Наиль Абдрахманов, Александр Шам, Мария Швыдко, Артур Бичахчян, Алексей Овсянников, Людмила Колесникова

Описание

Майор Павел Викторов назначен начальником ГУВД в город своего детства – тихий подмосковный Валуев. Его жена Ксения планирует устроить мужа на новом месте и вернуться в Москву – там работа и сын-первокурсник. Патриархальный Валуев встречает Викторовых пожаром, в котором гибнут двое молодых цыган. Расследуя с помощью Ксении это простое с виду дело, Павел обнаруживает тайную криминальную жизнь Валуева, продолжающуюся не одно десятилетие. От идеи гостевого брака Ксении приходится отказаться. Оказывается, в Валуеве служит их бывшая однокурсница Татьяна – первая любовь Павла...

Возраст: 12+ (зрителям, достигшим 12 лет)
Продолжительность: ~00: 45: 00 серия
Качество видео: WEBRip
Перевод: Не требуется (Русский)
Субтитры: Отсутствуют
Видео: AVC/H.264, 1920x1080, ~1350 kbps
Аудио: AAC, 6 ch, 384 kbps
General
Complete name : Дама_Треф_2019_1080p_02.mp4
Format : MPEG-4
Format profile : Base Media
Codec ID : isom (isom/iso2/avc1/mp41)
File size : 578 MiB
Duration : 46 min 24 s
Overall bit rate : 1 740 kb/s
Writing application : Lavf58.20.100
Video
ID : 1
Format : AVC
Format/Info : Advanced Video Codec
Format profile : [email protected]
Format settings : CABAC/3 Ref Frames
Format settings, CABAC : Yes
Format settings, ReFrames : 3 frames
Codec ID : avc1
Codec ID/Info : Advanced Video Coding
Duration : 46 min 24 s
Duration_FirstFrame : -40 ms
Bit rate : 1 348 kb/s
Width : 1 920 pixels
Height : 1 080 pixels
Display aspect ratio : 16: 9
Frame rate mode : Variable
Frame rate : 25.000 FPS
Minimum frame rate : 25.000 FPS
Maximum frame rate : 25.014 FPS
Color space : YUV
Chroma subsampling : 4: 2: 0
Bit depth : 8 bits
Scan type : Progressive
Bits/(Pixel*Frame) : 0.026
Stream size : 448 MiB (77%)
Writing library : x264 core 155 r2901 7d0ff22
Color range : Limited
Color primaries : BT.709
Transfer characteristics : BT.709
Matrix coefficients : BT.709
Codec configuration box : avcC
Audio
ID : 2
Format : AAC LC
Format/Info : Advanced Audio Codec Low Complexity
Codec ID : mp4a-40-2
Duration : 46 min 24 s
Bit rate mode : Constant
Bit rate : 384 kb/s
Channel(s) : 6 channels
Channel layout : C L R Ls Rs LFE
Sampling rate : 48.0 kHz
Frame rate : 46.875 FPS (1024 SPF)
Compression mode : Lossy
Stream size : 128 MiB (22%)
Default : Yes
Alternate group : 1
Скриншоты:


Все одноименные релизы в Клубе
Время раздачи: 24/7 (до появления первых 3-5 скачавших)

Другие торренты по теме:

  • Дама треф (2019) WEB-DLRip (серии 1-2 из 2)

  • Посетители, находящиеся в группе Гости, не могут оставлять комментарии в данной новости.