Подписывайся на наш канал в Telegram https://t.me/torrentok и получи доступ к торрентам без ограничений!

У чёрта на куличках / Yonderland (2013–2016) WEBRip [H.264] (сезон 1–3, серии 1-24 из 24) Badger Studio [MP4|1280𴪨] торрент скачать бесплатно

У чёрта на куличках / Yonderland (2013–2016) WEBRip [H.264] (сезон 1–3, серии 1-24 из 24) Badger Studio [MP4|1280𴪨]Производство: Великобритания/Working Title Television
Жанр: фэнтези, комедия
Режиссер: Стив Коннелли, Дэвид Сент
Актеры: Мэтью Бэйнтон, Саймон Фарнэби, Марта Хоу-Дуглас, Джим Хоуик, Лоуренс Рикард, Бен Уиллбонд, Рентон Скиннер, Клер Томсон, Айэстин Эванс, Вим Оппенхаймер

Описание

Домохозяйка Дебби Мэддокс неожиданно оказывается Избранной и через портал в своем кухонном шкафу отправляется в волшебный мир Йондерленда, который, согласно пророчеству, только она может спасти от сил зла. Вместе со своими новыми друзьями Эльфом и Ником Палкой, встречая на своем пути причудливых и забавных персонажей, Дебби попадёт во множество приключений, чтобы победить врагов, которые стремятся захватить власть в волшебной стране.


Продолжительность: ~00: 22: 00 серия
Качество видео: WEBRip
Перевод: Двуголосый любительский (Badger Studio)
Субтитры: Отсутствуют
Видео: AVC/H.264, 1280×720, ~1956 kb/s
Аудио: AAC, 2 ch, 209 kb/s
General
Complete name : \Yonderland S01–03Yonderland.S01E01.mp4
Format : MPEG-4
Format profile : Base Media
Codec ID : isom (isom/iso2/avc1/mp41)
File size : 340 MiB
Duration : 21 min 53 s
Overall bit rate : 2 169 kb/s
Writing application : Lavf58.45.100
Video
ID : 1
Format : AVC
Format/Info : Advanced Video Codec
Format profile : [email protected]
Format settings : CABAC/4 Ref Frames
Format settings, CABAC : Yes
Format settings, Reference fra : 4 frames
Format settings, GOP : M=1, N=76
Codec ID : avc1
Codec ID/Info : Advanced Video Coding
Duration : 21 min 53 s
Duration_FirstFrame : 46 ms
Bit rate : 1 956 kb/s
Width : 1 280 pixels
Height : 720 pixels
Display aspect ratio : 16: 9
Frame rate mode : Constant
Frame rate : 25.000 FPS
Color space : YUV
Chroma subsampling : 4: 2: 0
Bit depth : 8 bits
Scan type : Progressive
Bits/(Pixel*Frame) : 0.085
Stream size : 306 MiB (90%)
Tagged date : UTC 2020-09-05 10: 25: 29
Codec configuration box : avcC
Audio
ID : 2
Format : AAC LC
Format/Info : Advanced Audio Codec Low Complexity
Codec ID : mp4a-40-2
Duration : 21 min 53 s
Bit rate mode : Constant
Bit rate : 210 kb/s
Channel(s) : 2 channels
Channel layout : L R
Sampling rate : 44.1 kHz
Frame rate : 43.066 FPS (1024 SPF)
Compression mode : Lossy
Stream size : 32.8 MiB (10%)
Default : Yes
Alternate group : 1
Tagged date : UTC 2020-09-05 10: 25: 29
Скриншоты:


Все одноименные релизы в Клубе
Время раздачи: 24/7 (до появления первых 3-5 скачавших)

Другие торренты по теме:

  • Blender Cloud | Создание морского чёрта в Blender 2.81 / Anglerfish (2019) PCRec [H.264 / 1080p-LQ] [EN]

  • Посетители, находящиеся в группе Гости, не могут оставлять комментарии в данной новости.