Подписывайся на наш канал в Telegram https://t.me/torrentok и получи доступ к торрентам без ограничений!

Агата и сыск (2019-2020) WEB-DLRip [H.264] (сезон 1-2, серии 1-8 из 8) [MP4|1920x1080p] торрент скачать бесплатно

Агата и сыск (2019-2020) WEB-DLRip [H.264] (сезон 1-2, серии 1-8 из 8) [MP4|1920x1080p]Производство: Россия | ООО Зебра
Жанр: Детектив, история
Режиссер: Владимир Койфман
Актеры: Дарья Ленда, Константин Крюков, Александр Половцев, Борис Хвошнянский, Егор Бакулин, Константин Шелестун, Светлана Обидина, Татьяна Полонская

Описание

Конец 19 века. Российскими законами азартные игры запрещены, но ведь всегда найдутся желающие закон нарушить! Приехавшая в Москву Агата вновь встречается с молодым сыщиком Алексеем Пушкиным. И снова их встреча переплетается с чередой кровавых преступлений, на этот раз связанных с рулеткой. Один за другим погибают удачливые игроки, получившие невероятный выигрыш. Кто стоит за этими убийствами? И существует ли в действительности тайная формула игры, позволяющая обыграть судьбу?

Релиз от: lunkin
Продолжительность: ~00: 45: 00 серия
Качество видео: WEB-DLRip
Субтитры: Отсутствуют
Видео: AVC/H.264, 1920x1080, ~5120 kbps
Аудио: AAC, 2 ch, 256 kbps - русский
General
Complete name : Agata.i.sysk.Koroleva.brilyantov.01.serya.WEB-DL.(1080p).by.lunkin.mp4
Format : MPEG-4
Format profile : Base Media
Codec ID : isom (isom/iso2/avc1/mp41)
File size : 1.68 GiB
Duration : 44 min 44 s
Overall bit rate : 5 371 kb/s
Writing application : Lavf58.20.100
Video
ID : 1
Format : AVC
Format/Info : Advanced Video Codec
Format profile : [email protected]
Format settings : CABAC/4 Ref Frames
Format settings, CABAC : Yes
Format settings, ReFrames : 4 frames
Codec ID : avc1
Codec ID/Info : Advanced Video Coding
Duration : 44 min 44 s
Bit rate : 5 120 kb/s
Width : 1 920 pixels
Height : 1 080 pixels
Display aspect ratio : 16: 9
Frame rate mode : Constant
Frame rate : 25.000 FPS
Color space : YUV
Chroma subsampling : 4: 2: 0
Bit depth : 8 bits
Scan type : Progressive
Bits/(Pixel*Frame) : 0.099
Stream size : 1.60 GiB (95%)
Writing library : x264 core 148
Encoding settings : cabac=1/ref=3/deblock=1: 0: 0/analyse=0x3: 0x113/me=hex/subme=7/psy=1/psy_rd=1.00: 0.00/mixed_ref=1/me_range=16/chroma_me=1/trellis=1/8x8dct=1/cqm=0/deadzone=21, 11/fast_pskip=1/chroma_qp_offset=-2/threads=24/lookahead_threads=4/sliced_threads=0/nr=0/decimate=1/interlaced=0/bluray_compat=0/constrained_intra=0/bframes=6/b_pyramid=2/b_adapt=1/b_bias=0/direct=1/weightb=1/open_gop=0/weightp=2/keyint=50/keyint_min=26/scenecut=0/intra_refresh=0/rc_lookahead=40/rc=2pass/mbtree=1/bitrate=5120/ratetol=1.0/qcomp=0.60/qpmin=0/qpmax=69/qpstep=4/cplxblur=20.0/qblur=0.5/vbv_maxrate=7680/vbv_bufsize=20480/nal_hrd=none/filler=0/ip_ratio=1.40/aq=1: 1.00
Language : English
Tagged date : UTC 2019-09-27 16: 11: 30
Codec configuration box : avcC
Audio
ID : 2
Format : AAC LC
Format/Info : Advanced Audio Codec Low Complexity
Codec ID : mp4a-40-2
Duration : 44 min 44 s
Source duration : 44 min 44 s
Bit rate mode : Constant
Bit rate : 256 kb/s
Channel(s) : 2 channels
Channel layout : L R
Sampling rate : 48.0 kHz
Frame rate : 46.875 FPS (1024 SPF)
Compression mode : Lossy
Stream size : 81.9 MiB (5%)
Source stream size : 81.9 MiB (5%)
Language : Russian
Default : Yes
Alternate group : 1
Tagged date : UTC 2019-09-27 16: 11: 30
Other
ID : 3
Type : Time code
Format : QuickTime TC
Duration : 44 min 44 s
Time code of first frame : 00: 00: 00: 00
Time code, striped : Yes
Default : No
Tagged date : UTC 2019-09-27 16: 11: 30
Скриншоты:


Все одноименные релизы в Клубе
Время раздачи: 24/7 (мультитрекерная раздача)

Другие торренты по теме:

  • Агата и сыск. Рулетка судьбы (2020) WEBRip [H.264] (сезон 2, серии 1-4 из 4)
  • Агата и сыск. Рулетка судьбы (2020) SATRip (сезон 2, серии 1-4 из 4)
  • Агата и сыск. Королева брильянтов (2019) WEB-DLRip (сезон 1, серии 1-4 из 4)
  • Агата и сыск. Королева брильянтов (2019) SATRip [H.264] (сезон 1,серии 1-4 из 4)

  • Посетители, находящиеся в группе Гости, не могут оставлять комментарии в данной новости.