Подписывайся на наш канал в Telegram https://t.me/torrentok и получи доступ к торрентам без ограничений!

Трудные люди (2006) WEBRip [H.264] [MP4|944x720p] Спектакль торрент скачать бесплатно

Трудные люди (2006) WEBRip [H.264] [MP4|944x720p] СпектакльПроизводство: Россия | Московский театр Современник
Жанр: Комедия
Режиссер: Галина Волчек
Актеры: Лия Ахеджакова, Валентин Гафт, Игорь Кваша, Александр Олешко
Автор пьесы: Йосеф Бар-Йосеф

Описание

Где-то в Англии, в небольшом портовом городе живет немолодая смешная женщина по имени Рахель. Надо заметить, что Рахель – старая дева, и вся ее семья состоит из нее и брата – холостяка Саймона, который является полной противоположностью сестре. Оба далеко не молоды, и каждый привык жить так, как ему нравится. Рахель, кажется, абсолютно счастлива в своей уютной квартирке, где каждая чашечка, каждое блюдечко, каждая салфеточка и вазочка вызывают у нее умиление. Рахель копается в любимых вещах, совершенно не считая их бездушными предметами интерьера.

Продолжительность: 01: 59: 26
Качество видео: WEBRip
Субтитры: Отсутствуют
Видео: AVC/H.264, 944x720, ~3973 kbps
Аудио: AAC, 2 ch, 192 kbps - русский
General
Complete name : I: Trudnie_Ludi_2006_WEBRip_720p_Sovremennik.mp4
Format : MPEG-4
Format profile : Base Media/Version 2
Codec ID : mp42 (mp42/mp41)
File size : 3.48 GiB
Duration : 1 h 59 min
Overall bit rate mode : Variable
Overall bit rate : 4 166 kb/s
Encoded date : UTC 2020-09-24 13: 43: 32
Tagged date : UTC 2020-09-24 13: 47: 01
TIM : 00: 00: 00: 00
TSC : 25
TSZ : 1
Video
ID : 1
Format : AVC
Format/Info : Advanced Video Codec
Format profile : [email protected]
Format settings : CABAC/3 Ref Frames
Format settings, CABAC : Yes
Format settings, ReFrames : 3 frames
Codec ID : avc1
Codec ID/Info : Advanced Video Coding
Duration : 1 h 59 min
Source duration : 1 h 59 min
Bit rate mode : Variable
Bit rate : 3 973 kb/s
Maximum bit rate : 5 000 kb/s
Width : 944 pixels
Height : 720 pixels
Display aspect ratio : 4: 3
Frame rate mode : Constant
Frame rate : 25.000 FPS
Standard : PAL
Color space : YUV
Chroma subsampling : 4: 2: 0
Bit depth : 8 bits
Scan type : Progressive
Bits/(Pixel*Frame) : 0.234
Stream size : 3.31 GiB (95%)
Source stream size : 3.31 GiB (95%)
Language : English
Encoded date : UTC 2020-09-24 13: 43: 32
Tagged date : UTC 2020-09-24 13: 43: 32
Color range : Limited
Color primaries : BT.709
Transfer characteristics : BT.709
Matrix coefficients : BT.709
Codec configuration box : avcC
Audio
ID : 2
Format : AAC LC
Format/Info : Advanced Audio Codec Low Complexity
Codec ID : mp4a-40-2
Duration : 1 h 59 min
Source duration : 1 h 59 min
Bit rate mode : Variable
Bit rate : 192 kb/s
Maximum bit rate : 265 kb/s
Channel(s) : 2 channels
Channel layout : L R
Sampling rate : 44.1 kHz
Frame rate : 43.066 FPS (1024 SPF)
Compression mode : Lossy
Stream size : 162 MiB (5%)
Source stream size : 162 MiB (5%)
Language : English
Encoded date : UTC 2020-09-24 13: 43: 32
Tagged date : UTC 2020-09-24 13: 43: 32
Скриншоты:


Все одноименные релизы в Клубе
Время раздачи: 24/7 (до появления первых 3-5 скачавших)

Другие торренты по теме:

  • Керри Паттерсон и др. | Трудные диалоги (2014) [EPUB]
  • Н.Н. Соловьёва | Трудные случаи орфографии. Слитное, раздельное и дефисное написание существительных, прилагательных, наречий, предлогов, союзов, частиц и междометий (2011) [PDF]
  • Сисси: Трудные годы императрицы / Sissi - Schicksalsjahre einer Kaiserin (1957) BDRip [H.264]
  • Трудные годы / Anni difficili (1948) DVDRip [VO]
  • Геннадий Старшенбаум | Трудные характеры. Как с ними справиться (2017) [FB2, EPUB]
  • А. Попов | 100 способов заработать деньги в трудные времена (2010) [DJVU]
  • Маруся. Трудные взрослые (2019) WEB-DLRip (серии 1-2 из 2)
  • Маруся. Трудные взрослые (2019) SATRip [H.264] (серии 1-2 из 2)

  • Посетители, находящиеся в группе Гости, не могут оставлять комментарии в данной новости.