Подписывайся на наш канал в Telegram https://t.me/torrentok и получи доступ к торрентам без ограничений!

Ты супер! (27.09.2020) [H.264] (сезон 4, выпуск 2) [MP4|1920x1080p] торрент скачать бесплатно

Ты супер! (27.09.2020) [H.264] (сезон 4, выпуск 2) [MP4|1920x1080p]Производство: Россия | НТВ
Жанр: Тв шоу, музыка
Ведущий: Вадим Такменёв, Анастасия Пак
Участники: Анна Ларина, Даниил Журавлёв, Диана Хасанова, Татьяна Кондратюкова, Карина Амринова, Антон Пирогов, Светлана Сабирова, Анастасия Лисовая, Элеонора Симакова и другие.

Описание

На НТВ стартовал четвертый сезон международного вокального конкурса Ты супер! для детей, оставшихся без попечения родителей. Талантливые ребята со сложной судьбой выходят на большую сцену, чтобы проявить себя и заявить о себе на весь мир.
Все участники проекта Ты супер! — уникальные, талантливые, яркие, красивые — настоящие маленькие звездочки, чьи истории трогают до слез, а улыбки буквально озаряют студию. В новом выпуске шоу — трогательные выступления, суперсюрпризы и необыкновенные встречи, которые помогают конкурсантам радоваться жизни и улыбаться чаще!
Возраст: 6+ (зрителям, достигшим 6 лет)
Продолжительность: 02: 17: 44
Качество видео: WEBRip
Субтитры: Отсутствуют
Видео: AVC/H.264, 1920x1080, ~3810 kbps
Аудио: AAC, 2 ch, 128 kbps - русский
General
Complete name : Ты_супер!_S04_Выпуск_2_1080p.mp4
Format : MPEG-4
Format profile : Base Media
Codec ID : isom (isom/iso2/avc1/mp41)
File size : 3.79 GiB
Duration : 2 h 17 min
Overall bit rate : 3 943 kb/s
Writing application : Lavf58.20.100
Video
ID : 1
Format : AVC
Format/Info : Advanced Video Codec
Format profile : [email protected]
Format settings : CABAC/3 Ref Frames
Format settings, CABAC : Yes
Format settings, ReFrames : 3 frames
Codec ID : avc1
Codec ID/Info : Advanced Video Coding
Duration : 2 h 17 min
Duration_FirstFrame : -40 ms
Bit rate : 3 810 kb/s
Width : 1 920 pixels
Height : 1 080 pixels
Display aspect ratio : 16: 9
Frame rate mode : Variable
Frame rate : 25.000 FPS
Minimum frame rate : 25.000 FPS
Maximum frame rate : 25.014 FPS
Color space : YUV
Chroma subsampling : 4: 2: 0
Bit depth : 8 bits
Scan type : Progressive
Bits/(Pixel*Frame) : 0.073
Stream size : 3.67 GiB (97%)
Color range : Limited
Color primaries : BT.709
Transfer characteristics : BT.709
Matrix coefficients : BT.709
Codec configuration box : avcC
Audio
ID : 2
Format : AAC LC
Format/Info : Advanced Audio Codec Low Complexity
Codec ID : mp4a-40-2
Duration : 2 h 17 min
Bit rate mode : Constant
Bit rate : 128 kb/s
Channel(s) : 2 channels
Channel layout : L R
Sampling rate : 44.1 kHz
Frame rate : 43.066 FPS (1024 SPF)
Compression mode : Lossy
Stream size : 126 MiB (3%)
Default : Yes
Alternate group : 1

Другие торренты по теме:

  • Леди Баг и Супер-Кот / Miraculous: Tales of Ladybug and Cat Noir (2015) SatRip (сезон 1, серии 1-4 из 26) Обновляемая скачать через торрент бесплатно
  • Леди Баг и Супер-Кот / Miraculous: Tales of Ladybug and Cat Noir (2015) DVB (сезон 1, серии 1-4 из 26) Обновляемая скачать через торрент бесплатно
  • Леди Баг и Супер-Кот / Miraculous: Tales of Ladybug and Cat Noir (2015) DVB (сезон 1, серии 1-26 из 26)
  • Леди Баг и Супер-Кот / Miraculous: Tales of Ladybug and Cat Noir (2015) WEB-DL [H.264 / 1080p-LQ] (Сезон 1, 26 серий из 26) [UKR, EN]
  • Леди Баг и Супер-Кот / Miraculous: Tales of Ladybug and Cat Noir (2016-2018) WEB-DLRip[H.264 / 1080p] (Сезон 2, серии 1-6, 8-12 из 15) (Обновляемая)
  • Леди Баг и Супер-Кот / Miraculous: Tales of Ladybug and Cat Noir (2015) WEB-DLRip [H.264 / 1080p] (Сезон 1, 26 серий из 26)
  • Супер Крылья: Джетт и его друзья / Super Wings! (2015) WEB-DL [H.264 / 1080p-LQ] (1 сезон, 52 серий из 52)
  • От бездомной собаки до супер пса / Rescue Dog to Super Dog (2017) HDTVRip (Сезон 1, серии 1-2)

  • Посетители, находящиеся в группе Гости, не могут оставлять комментарии в данной новости.